<?xml version="1.0" standalone="no"?>
<!DOCTYPE svg PUBLIC "-//W3C//DTD SVG 1.1//EN" "http://www.w3.org/Graphics/SVG/1.1/DTD/svg11.dtd" >
<svg xmlns="http://www.w3.org/2000/svg">
<metadata></metadata>
<defs>
<font id="nerisblack" horiz-adv-x="554" >
<font-face units-per-em="1000" ascent="755" descent="-245" />
<missing-glyph horiz-adv-x="200" />
<glyph horiz-adv-x="1000" />
<glyph horiz-adv-x="1000" />
<glyph unicode="&#xd;" horiz-adv-x="485" />
<glyph unicode=" "  horiz-adv-x="200" />
<glyph unicode="&#x09;" horiz-adv-x="200" />
<glyph unicode="&#xa0;" horiz-adv-x="200" />
<glyph unicode="!" horiz-adv-x="293" d="M60 82q0 44 24 68.5t67 24.5q44 0 68 -24.5t24 -68.5t-24.5 -68.5t-67.5 -24.5t-67 24.5t-24 68.5zM62 513v185q0 13 13 13h143q13 0 13 -13v-185q0 -40 -12.5 -141.5t-14.5 -132.5q0 -13 -13 -13h-89q-13 0 -13 13q-2 31 -14.5 132.5t-12.5 141.5z" />
<glyph unicode="&#x22;" horiz-adv-x="434" d="M57 622v93q0 13 13 13h102q13 0 13 -13v-93q0 -22 -9.5 -81t-10.5 -67q-1 -12 -13 -12h-62q-12 0 -13 12q-1 15 -10.5 70.5t-9.5 77.5zM249 622v93q0 13 13 13h102q13 0 13 -13v-93q0 -22 -9.5 -81t-10.5 -67q-1 -12 -13 -12h-62q-12 0 -13 12q-1 15 -10.5 70.5 t-9.5 77.5z" />
<glyph unicode="#" horiz-adv-x="763" d="M40 154l15 114q1 12 14 12h99l20 149h-96q-14 0 -12 14l13 113q1 12 13 12h102l17 129q1 12 14 12h120q14 0 12 -14l-17 -127h116l17 129q1 12 14 12h120q14 0 12 -14l-17 -127h95q14 0 12 -14l-13 -113q-2 -12 -13 -12h-101l-20 -149h98q14 0 12 -14l-15 -114 q-1 -12 -14 -12h-101l-17 -128q-1 -12 -14 -12h-120q-14 0 -12 14l17 126h-116l-17 -128q-1 -12 -14 -12h-120q-14 0 -12 14l17 126h-96q-14 0 -12 14zM314 280h116l20 149h-116z" />
<glyph unicode="$" horiz-adv-x="620" d="M44 59l40 111q5 12 16 8l70 -21q79 -24 146 -24q100 0 100 66q0 40 -90 74l-84 32q-104 39 -145.5 84t-41.5 126q0 79 45 129.5t127 67.5v100q0 13 13 13h133q13 0 13 -13v-97q46 -8 86 -21l66 -22q12 -4 9 -16l-41 -112q-5 -12 -16 -8l-59 18q-70 21 -119 21 q-42 0 -68 -16.5t-26 -43.5q0 -25 20.5 -40t67.5 -32l84 -31q105 -39 147 -85.5t42 -127.5q0 -172 -181 -203v-97q0 -13 -13 -13h-134q-13 0 -13 13v95q-49 6 -119 28l-66 21q-12 4 -9 16z" />
<glyph unicode="%" horiz-adv-x="787" d="M38 556q0 73 43.5 115t116.5 42q72 0 116 -42t44 -115q0 -72 -44 -114.5t-116 -42.5q-73 0 -116.5 42.5t-43.5 114.5zM99 16l455 677q6 8 16 8h109q8 0 10.5 -4.5t-2.5 -11.5l-455 -677q-6 -8 -16 -8h-109q-8 0 -10.5 4.5t2.5 11.5zM154 556q0 -22 12 -36t32 -14 q19 0 31 14.5t12 35.5q0 24 -11.5 37.5t-31.5 13.5q-44 0 -44 -51zM430 145q0 72 43 114t115 42q73 0 116.5 -42t43.5 -114q0 -73 -43.5 -114.5t-116.5 -41.5q-72 0 -115 41.5t-43 114.5zM546 145q0 -22 11.5 -36t30.5 -14q21 0 33 14t12 36q0 48 -45 48q-19 0 -30.5 -12.5 t-11.5 -35.5z" />
<glyph unicode="&#x26;" horiz-adv-x="735" d="M40 179q0 57 27.5 100t88.5 81l21 13q-54 72 -54 146q0 94 58.5 147.5t161.5 53.5q62 0 125 -21l63 -22q11 -3 8 -16l-39 -107q-3 -13 -16 -8l-58 20q-39 12 -83 12q-33 0 -52 -15.5t-19 -43.5q0 -36 48 -92l153 -174l26 17q34 24 34 46v27h-60q-13 0 -13 13v111 q0 13 13 13h194q13 0 13 -13v-151q0 -59 -20.5 -92.5t-74.5 -69.5l-16 -10l112 -128q5 -7 3 -11.5t-10 -4.5h-159q-10 0 -16 7l-52 58l-24 -16q-98 -60 -182 -60q-94 0 -147.5 50.5t-53.5 139.5zM191 179q0 -23 13.5 -36t36.5 -13q43 0 100 39l9 6l-80 89l-44 -27 q-35 -22 -35 -58z" />
<glyph unicode="'" horiz-adv-x="242" d="M57 622v93q0 13 13 13h102q13 0 13 -13v-93q0 -22 -9.5 -81t-10.5 -67q-1 -12 -13 -12h-62q-12 0 -13 12q-1 15 -10.5 70.5t-9.5 77.5z" />
<glyph unicode="(" horiz-adv-x="383" d="M77 332q0 235 107 423q4 9 15 9h119q17 0 9 -15q-52 -109 -80 -204t-28 -213t28 -213.5t80 -204.5q8 -15 -9 -15h-119q-11 0 -15 9q-107 188 -107 424z" />
<glyph unicode=")" horiz-adv-x="383" d="M56 -86q52 109 80 204.5t28 213.5t-28 213t-80 204q-8 15 9 15h119q10 0 15 -9q107 -188 107 -423q0 -236 -107 -424q-5 -9 -15 -9h-119q-17 0 -9 15z" />
<glyph unicode="*" horiz-adv-x="426" d="M38 526v73q0 13 13 13h44q23 0 48 -9q3 -1 4.5 1.5t-1.5 4.5q-24 21 -34 37l-36 66q-9 16 9 16h80q11 0 15 -9l14 -24q12 -26 16 -50q1 -4 3.5 -4t3.5 5q4 27 15 47l14 26q4 9 15 9h80q8 0 10.5 -4.5t-1.5 -11.5l-37 -66q-15 -26 -34 -37q-5 -3 0 -6q1 -1 3 0q20 9 52 9 h41q13 0 13 -13v-73q0 -13 -13 -13h-42q-27 0 -51 9q-3 1 -4.5 -1.5t1.5 -4.5q20 -13 34 -36l38 -68q7 -16 -10 -16h-78q-11 0 -15 9l-13 24q-16 28 -18 52q-1 8 -5 4q-2 -1 -2 -4q-2 -22 -18 -52l-14 -24q-4 -9 -15 -9h-78q-17 0 -10 15l37 68q16 24 34 37q3 2 1.5 4.5 t-4.5 1.5q-20 -9 -48 -9h-44q-13 0 -13 13z" />
<glyph unicode="+" horiz-adv-x="628" d="M67 203v113q0 13 13 13h162v175q0 13 13 13h119q13 0 13 -13v-175h161q13 0 13 -13v-113q0 -13 -13 -13h-161v-175q0 -13 -13 -13h-119q-13 0 -13 13v175h-162q-13 0 -13 13z" />
<glyph unicode="," horiz-adv-x="274" d="M45 78q0 46 24 70.5t68 24.5q43 0 67.5 -28.5t24.5 -78.5q0 -69 -46 -151l-44 -79h-91l63 113q8 14 10 22.5t-2.5 13.5t-17.5 9q-25 8 -40.5 30.5t-15.5 53.5z" />
<glyph unicode="-" horiz-adv-x="434" d="M67 204v112q0 13 13 13h275q13 0 13 -13v-112q0 -13 -13 -13h-275q-13 0 -13 13z" />
<glyph unicode="." horiz-adv-x="283" d="M50 82q0 44 24 68.5t67 24.5q44 0 68 -24.5t24 -68.5t-24.5 -68.5t-67.5 -24.5t-67 24.5t-24 68.5z" />
<glyph unicode="/" horiz-adv-x="572" d="M54 -86l325 842q4 10 15 10h124q17 0 10 -15l-326 -842q-4 -10 -15 -10h-123q-17 0 -10 15z" />
<glyph unicode="0" horiz-adv-x="653" d="M45 354q0 169 75.5 267.5t205.5 98.5t205.5 -98.5t75.5 -267.5t-75.5 -267t-205.5 -98t-205.5 98t-75.5 267zM205 354q0 -106 32 -165.5t89 -59.5q58 0 89.5 59.5t31.5 165.5t-31.5 165.5t-89.5 59.5q-57 0 -89 -59.5t-32 -165.5z" />
<glyph unicode="1" horiz-adv-x="395" d="M30 599q-5 13 7 17l260 100q10 4 25 -9q8 -5 8 -16v-678q0 -13 -13 -13h-132q-13 0 -13 13v403q0 51 7 84q1 12 -10 12q-6 0 -16 -5l-65 -25q-13 -5 -17 7z" />
<glyph unicode="2" horiz-adv-x="595" d="M54 13v61q0 205 139 291l147 92q39 23 39 55t-21.5 49.5t-60.5 17.5q-59 0 -119 -20l-66 -21q-11 -4 -16 8l-37 109q-4 11 8 16l64 21q87 28 166 28q114 0 178 -55t64 -153q0 -55 -29 -96.5t-93 -81.5l-151 -93q-25 -15 -38.5 -43.5t-13.5 -59.5h300q13 0 13 -13v-112 q0 -13 -13 -13h-447q-13 0 -13 13z" />
<glyph unicode="3" horiz-adv-x="606" d="M50 56l41 107q3 13 16 8l64 -21q66 -21 117 -21t80 24t29 65q0 38 -26.5 61t-72.5 23h-59q-13 0 -13 13v112q0 13 13 13h58q35 0 55.5 17.5t20.5 45.5q0 36 -23 56t-63 20q-48 0 -103 -19l-56 -19q-11 -4 -16 8l-38 110q-3 12 8 16l59 19q73 26 146 26q115 0 180 -52.5 t65 -146.5q0 -51 -19.5 -82t-61.5 -54q-17 -9 0 -17q105 -48 105 -169q0 -99 -71 -154.5t-197 -55.5q-76 0 -163 28l-67 23q-13 3 -8 16z" />
<glyph unicode="4" horiz-adv-x="640" d="M40 176v122q0 8 6 16q41 49 77 101l142 196q13 18 58 89q5 9 15 9h179q13 0 13 -13v-395h62q13 0 13 -13v-112q0 -13 -13 -13h-62v-150q0 -13 -13 -13h-132q-13 0 -13 13v150h-319q-13 0 -13 13zM216 319q-6 -7 -4 -12.5t11 -5.5h149v88q0 57 8 120q2 11 -4 12.5 t-13 -8.5l-103 -142q-19 -29 -44 -52z" />
<glyph unicode="5" horiz-adv-x="606" d="M50 59l41 106q4 11 17 8l63 -23q69 -21 124 -21q48 0 75.5 26.5t29.5 73.5q2 39 -22 61.5t-75 22.5q-23 0 -74 -7l-109 -15q-10 -1 -17 6l-8 7q-7 6 -7 16v376q0 13 13 13h408q14 0 11 -15l-32 -113q-3 -11 -14 -11h-228v-57q0 -37 -3 -59q-1 -8 2 -9t11 0q1 1 2 1h2 l28 4q30 4 43 4q104 1 166.5 -59.5t62.5 -165.5q0 -113 -70 -176.5t-195 -63.5q-76 0 -169 30l-68 24q-13 3 -8 16z" />
<glyph unicode="6" horiz-adv-x="630" d="M45 242q1 90 32 166t120 197l71 96q5 8 16 8h156q8 0 10.5 -4.5t-2.5 -11.5l-114 -156q-28 -39 -58 -63q-9 -7 -5.5 -13t14.5 -2q39 12 87 12q86 0 149.5 -65t63.5 -172q0 -115 -71 -180t-198 -65q-128 0 -200 67t-71 186zM205 234q0 -49 29.5 -77t81.5 -28q51 0 80 28 t29 77q0 46 -29 73.5t-80 27.5q-52 0 -81.5 -27.5t-29.5 -73.5z" />
<glyph unicode="7" horiz-adv-x="604" d="M45 583v113q0 13 13 13h497q10 0 17 -10.5t2 -20.5q-41 -72 -83 -170l-199 -498q-4 -10 -15 -10h-138q-17 0 -10 15l173 435q21 52 55 101q6 11 3 15t-17 4h-285q-13 0 -13 13z" />
<glyph unicode="8" horiz-adv-x="637" d="M50 200q0 114 117 168q5 2 7 5t0 6.5t-7 5.5q-93 43 -93 145q0 88 65.5 139t178.5 51t179 -51t66 -139q0 -102 -94 -145q-7 -4 -7 -9t7 -8q118 -54 118 -168q0 -98 -72 -154.5t-197 -56.5t-196.5 56.5t-71.5 154.5zM210 215q0 -42 28.5 -64t79.5 -22q52 0 80.5 22 t28.5 64q0 41 -29 64t-80 23q-50 0 -79 -23.5t-29 -63.5zM234 508q0 -30 22.5 -48.5t61.5 -18.5q40 0 62.5 18.5t22.5 48.5q0 34 -22 52.5t-63 18.5q-40 0 -62 -18.5t-22 -52.5z" />
<glyph unicode="9" horiz-adv-x="630" d="M40 475q0 115 71 180t198 65q128 0 200 -67t71 -186q-1 -90 -32 -166t-120 -197l-71 -96q-5 -8 -16 -8h-156q-8 0 -10.5 4.5t2.5 11.5l114 156q28 39 58 63q9 7 5.5 13t-14.5 2q-39 -12 -87 -12q-86 0 -149.5 65t-63.5 172zM200 475q0 -46 29 -73.5t80 -27.5 q52 0 81.5 27.5t29.5 73.5q0 49 -29.5 77t-81.5 28q-51 0 -80 -28t-29 -77z" />
<glyph unicode=":" horiz-adv-x="273" d="M50 83q0 44 24 68.5t67 24.5q44 0 68 -24.5t24 -68.5t-24.5 -68.5t-67.5 -24.5t-67 24.5t-24 68.5zM50 408q0 44 24 68.5t67 24.5q44 0 68 -24.5t24 -68.5t-24.5 -68.5t-67.5 -24.5t-67 24.5t-24 68.5z" />
<glyph unicode=";" horiz-adv-x="274" d="M45 81q0 46 24 70.5t68 24.5q43 0 67.5 -28.5t24.5 -78.5q0 -69 -46 -151l-44 -79h-91l63 113q8 14 10 22.5t-2.5 13.5t-17.5 9q-25 8 -40.5 30.5t-15.5 53.5zM50 408q0 44 24 68.5t67 24.5q44 0 68 -24.5t24 -68.5t-24.5 -68.5t-67.5 -24.5t-67 24.5t-24 68.5z" />
<glyph unicode="&#x3c;" horiz-adv-x="629" d="M67 220v78q0 10 10 16l470 223q15 7 15 -10v-128q0 -11 -10 -15l-271 -125l271 -125q10 -4 10 -15v-128q0 -17 -15 -10l-470 223q-10 6 -10 16z" />
<glyph unicode="=" horiz-adv-x="600" d="M67 88v112q0 13 13 13h441q13 0 13 -13v-112q0 -13 -13 -13h-441q-13 0 -13 13zM67 320v112q0 13 13 13h441q13 0 13 -13v-112q0 -13 -13 -13h-441q-13 0 -13 13z" />
<glyph unicode="&#x3e;" horiz-adv-x="629" d="M67 -9v128q0 11 10 15l271 125l-271 125q-10 4 -10 15v128q0 17 15 10l470 -223q10 -6 10 -16v-78q0 -10 -10 -16l-470 -223q-15 -7 -15 10z" />
<glyph unicode="?" horiz-adv-x="582" d="M40 653q-4 12 8 16l68 23q87 28 170 28q121 0 183.5 -53t62.5 -147q0 -49 -22.5 -87.5t-72.5 -75.5l-65 -46q-20 -16 -20 -47v-34q0 -13 -13 -13h-132q-13 0 -13 13v34q0 56 19 94t66 72l69 49q25 17 25 41q0 20 -25.5 34.5t-61.5 14.5q-62 0 -123 -20l-64 -21 q-13 -5 -16 8zM187 81q0 44 24 68.5t67 24.5q44 0 68 -24.5t24 -68.5t-24.5 -68.5t-67.5 -24.5t-67 24.5t-24 68.5z" />
<glyph unicode="@" horiz-adv-x="868" d="M57 257q0 165 101.5 265t270.5 100q170 0 278.5 -97.5t108.5 -237.5q0 -83 -40.5 -125t-107.5 -42q-55 0 -90.5 31.5t-66.5 102.5q-9 20 -16 31t-22 21.5t-36 10.5q-27 0 -45 -15.5t-18 -42.5t18.5 -43t49.5 -16q20 0 37 5q7 3 13 -9q24 -55 63 -82q16 -12 -2 -17 l-46 -12q-31 -9 -68 -9q-90 0 -141 48.5t-51 135.5q0 83 47.5 130.5t134.5 47.5q104 0 162 -70q21 -26 35 -58.5t22 -48.5t20 -16q19 0 19 42q0 88 -73.5 149.5t-184.5 61.5q-108 0 -175.5 -66.5t-67.5 -174.5q0 -107 67 -173t177 -66q65 0 127 19l106 28q12 3 16 -9l29 -95 q4 -13 -9 -17l-109 -30q-74 -21 -160 -21q-171 0 -272 100t-101 264z" />
<glyph unicode="A" horiz-adv-x="748" d="M30 15l141 382q65 178 95 301q3 11 15 11h186q12 0 15 -11q30 -123 95 -301l141 -382q5 -15 -11 -15h-141q-11 0 -15 10l-30 84h-294l-30 -84q-4 -10 -15 -10h-141q-16 0 -11 15zM278 235h192l-14 40q-58 159 -73 238q-2 9 -9 9t-9 -9q-16 -82 -73 -238z" />
<glyph unicode="B" horiz-adv-x="659" d="M65 13v683q0 13 13 13h272q116 0 181 -50.5t65 -139.5q0 -100 -80 -139q-7 -3 -10 -6.5t-0.5 -7.5t9.5 -7q39 -15 71 -53.5t32 -106.5q0 -94 -65.5 -146.5t-183.5 -52.5h-291q-13 0 -13 13zM227 141h140q42 0 65 19.5t23 53.5q0 80 -106 80h-122v-153zM227 435h111 q95 0 95 67q0 31 -21.5 48t-61.5 17h-123v-132z" />
<glyph unicode="C" horiz-adv-x="630" d="M45 355q0 168 87 266.5t237 98.5q83 0 149 -21l46 -15q12 -5 8 -16l-36 -113q-5 -12 -16 -8l-47 15q-42 13 -104 13q-75 0 -118 -58t-43 -162q0 -105 43 -163.5t118 -58.5q58 0 103 15l47 14q13 5 16 -8l40 -109q4 -12 -8 -16l-48 -16q-72 -24 -150 -24q-150 0 -237 98.5 t-87 267.5z" />
<glyph unicode="D" horiz-adv-x="691" d="M65 13v683q0 13 13 13h248q149 0 234.5 -95.5t85.5 -259.5q0 -160 -87 -257t-233 -97h-248q-13 0 -13 13zM227 141h99q73 0 115 56t42 157q0 102 -42 157.5t-115 55.5h-99v-426z" />
<glyph unicode="E" horiz-adv-x="613" d="M65 13v683q0 13 13 13h481q14 0 11 -15l-32 -116q-3 -11 -14 -11h-297v-132h245q13 0 13 -13v-115q0 -13 -13 -13h-245v-153h327q13 0 13 -13v-115q0 -13 -13 -13h-476q-13 0 -13 13z" />
<glyph unicode="F" horiz-adv-x="608" d="M65 13v683q0 13 13 13h481q14 0 11 -15l-32 -116q-3 -11 -14 -11h-297v-166h255q13 0 13 -13v-115q0 -13 -13 -13h-255v-247q0 -13 -13 -13h-136q-13 0 -13 13z" />
<glyph unicode="G" horiz-adv-x="688" d="M45 354q0 169 86.5 267.5t236.5 98.5q73 0 148 -23l52 -17q12 -4 8 -16l-41 -110q-3 -13 -16 -8l-48 15q-42 14 -103 14q-75 0 -117.5 -58.5t-42.5 -162.5t42.5 -162.5t117.5 -58.5q62 0 100 13l11 3v110h-107q-14 0 -11 15l33 116q3 11 14 11h212q13 0 13 -13v-331 q0 -11 -11 -14l-93 -29l-12 -4q-67 -21 -149 -21q-150 0 -236.5 98t-86.5 267z" />
<glyph unicode="H" horiz-adv-x="714" d="M65 13v683q0 13 13 13h136q13 0 13 -13v-261h260v261q0 13 13 13h135q13 0 13 -13v-683q0 -13 -13 -13h-135q-13 0 -13 13v281h-260v-281q0 -13 -13 -13h-136q-13 0 -13 13z" />
<glyph unicode="I" horiz-adv-x="292" d="M65 13v683q0 13 13 13h136q13 0 13 -13v-683q0 -13 -13 -13h-136q-13 0 -13 13z" />
<glyph unicode="J" horiz-adv-x="475" d="M34 36l41 110q3 13 16 8l29 -10q29 -11 63 -11q70 0 70 102v461q0 13 13 13h135q13 0 13 -13v-460q0 -116 -61 -181.5t-170 -65.5q-57 0 -113 21l-28 10q-11 3 -8 16z" />
<glyph unicode="K" horiz-adv-x="701" d="M65 13v683q0 13 13 13h136q13 0 13 -13v-261h20q43 0 84 31.5t70 87.5l76 146q5 9 15 9h146q17 0 9 -15l-106 -203q-44 -86 -125 -118q-4 -2 -4.5 -6t4.5 -6q85 -38 131 -128l116 -218q8 -15 -10 -15h-149q-10 0 -15 9l-81 155q-32 61 -74.5 95.5t-85.5 34.5h-21v-281 q0 -13 -13 -13h-136q-13 0 -13 13z" />
<glyph unicode="L" horiz-adv-x="576" d="M65 13v683q0 13 13 13h136q13 0 13 -13v-555h290q13 0 13 -13v-115q0 -13 -13 -13h-439q-13 0 -13 13z" />
<glyph unicode="M" horiz-adv-x="845" d="M65 13v683q0 13 13 13h202q11 0 14 -11q18 -57 22 -68l52 -151q33 -95 47 -152q2 -9 8 -9t8 9q18 77 44 152l54 151q11 27 22 68q3 11 15 11h201q13 0 13 -13v-683q0 -13 -13 -13h-135q-13 0 -13 13v211q0 164 12 252q1 10 -5 12t-9 -8q-10 -27 -32 -81l-55 -152 q-5 -15 -17 -50.5t-16 -49.5q-3 -11 -14 -11h-121q-11 0 -14 11q-29 87 -34 100l-55 153q-5 13 -15.5 39.5t-15.5 40.5q-4 10 -10 8t-5 -12q14 -102 14 -252v-211q0 -13 -13 -13h-136q-13 0 -13 13z" />
<glyph unicode="N" horiz-adv-x="732" d="M65 13v683q0 13 13 13h178q11 0 15 -10q7 -14 51 -106l143 -290q20 -44 36 -73q5 -12 11.5 -9.5t4.5 13.5q-11 68 -11 180v282q0 13 13 13h135q13 0 13 -13v-683q0 -13 -13 -13h-178q-11 0 -15 10q-11 25 -50 106l-142 288q-18 36 -36 75q-6 11 -12 8.5t-5 -12.5 q11 -77 11 -182v-280q0 -13 -13 -13h-136q-13 0 -13 13z" />
<glyph unicode="O" horiz-adv-x="727" d="M45 355q0 169 85.5 267t233.5 98t233 -98t85 -267q0 -168 -85.5 -267t-232.5 -99q-148 0 -233.5 98.5t-85.5 267.5zM208 355q0 -103 41.5 -162.5t114.5 -59.5t114 59.5t41 162.5q0 105 -41 162.5t-114 57.5t-114.5 -58t-41.5 -162z" />
<glyph unicode="P" horiz-adv-x="646" d="M65 13v683q0 13 13 13h270q120 0 186.5 -62.5t66.5 -173.5q0 -117 -76 -182t-212 -65h-86v-213q0 -13 -13 -13h-136q-13 0 -13 13zM227 367h86q59 0 92 28t33 78q0 44 -23.5 69t-66.5 25h-121v-200z" />
<glyph unicode="Q" horiz-adv-x="728" d="M45 354q0 169 86 267.5t233 98.5t232.5 -98.5t85.5 -267.5q0 -88 -29 -164.5t-78 -105.5q-9 -5 -9 -8t9 -6q41 -15 66 -34t50 -52l45 -61q8 -10 -2 -18l-100 -78q-10 -8 -18 2l-48 64q-36 48 -83 72t-121 24q-147 0 -233 98.5t-86 266.5zM208 354q0 -102 42 -161.5 t114 -59.5q73 0 114 59t41 162q0 105 -41 163t-114 58q-72 0 -114 -58.5t-42 -162.5z" />
<glyph unicode="R" horiz-adv-x="683" d="M65 13v683q0 13 13 13h279q119 0 185.5 -57.5t66.5 -159.5q0 -64 -34 -110.5t-84 -68.5q-18 -9 -1 -19q51 -31 87 -110l70 -169q5 -15 -10 -15h-144q-11 0 -15 10l-44 107q-30 73 -66 104t-113 31h-28v-239q0 -13 -13 -13h-136q-13 0 -13 13zM227 393h109q110 0 110 87 q0 40 -24.5 63.5t-64.5 23.5h-130v-174z" />
<glyph unicode="S" horiz-adv-x="620" d="M44 59l40 111q5 12 16 8l70 -21q79 -24 146 -24q100 0 100 66q0 40 -90 74l-84 32q-104 39 -145.5 84t-41.5 126q0 97 68.5 151t188.5 54q82 0 160 -26l66 -22q12 -4 9 -16l-41 -112q-5 -12 -16 -8l-59 18q-70 21 -119 21q-42 0 -68 -16.5t-26 -43.5q0 -25 20.5 -40 t67.5 -32l84 -31q105 -39 147 -85.5t42 -127.5q0 -103 -67.5 -156.5t-195.5 -53.5q-96 0 -197 33l-66 21q-12 4 -9 16z" />
<glyph unicode="T" horiz-adv-x="652" d="M35 580v116q0 13 13 13h556q13 0 13 -13v-116q0 -13 -13 -13h-197v-554q0 -13 -13 -13h-135q-13 0 -13 13v554h-198q-13 0 -13 13z" />
<glyph unicode="U" horiz-adv-x="678" d="M55 293v403q0 13 13 13h136q13 0 13 -13v-403q0 -77 32 -118.5t90 -41.5t90 41.5t32 118.5v403q0 13 13 13h135q13 0 13 -13v-403q0 -145 -74 -224.5t-209 -79.5q-134 0 -209 79.5t-75 224.5z" />
<glyph unicode="V" horiz-adv-x="727" d="M25 694q-5 15 11 15h141q11 0 15 -10l96 -265q47 -128 66 -231q1 -6 5.5 -8.5t8.5 0t5 8.5q19 103 66 231l96 265q4 10 15 10h141q16 0 11 -15l-141 -383q-56 -156 -94 -300q-3 -11 -15 -11h-177q-12 0 -15 11q-38 144 -94 300z" />
<glyph unicode="W" horiz-adv-x="1018" d="M34 695q-5 14 11 14h138q12 0 15 -11l68 -270q26 -106 37 -220q0 -6 4.5 -9t8.5 -0.5t5 9.5q18 126 44 220l73 270q3 11 14 11h114q11 0 14 -11l74 -270q26 -94 44 -220q0 -7 4.5 -9.5t8.5 0.5t4 9q8 104 37 220l68 270q3 11 15 11h138q16 0 11 -14l-123 -480 q-27 -103 -46 -203q-1 -12 -14 -12h-183q-12 0 -14 12q-18 96 -36 166l-31 130q-9 39 -20 103q-1 7 -4.5 9.5t-7 0t-4.5 -9.5q-10 -57 -20 -103l-31 -130q-13 -56 -36 -166q-2 -12 -14 -12h-183q-13 0 -14 12q-19 100 -46 203z" />
<glyph unicode="X" horiz-adv-x="719" d="M53 15l123 232q34 64 86 99q1 1 4 2.5t4.5 3t1.5 4.5q2 5 -4 8q-58 36 -90 98l-122 232q-8 15 9 15h147q10 0 15 -9l121 -231q11 -23 22 0l122 231q4 9 15 9h147q17 0 9 -15l-122 -231q-32 -64 -91 -99q-4 -3 -4 -8q0 -3 1 -4.5t5 -3.5t5 -2q55 -36 86 -99l123 -232 q8 -15 -10 -15h-147q-11 0 -15 9l-126 234q-4 8 -6.5 10t-5 0t-6.5 -10l-125 -234q-5 -9 -15 -9h-147q-18 0 -10 15z" />
<glyph unicode="Y" horiz-adv-x="696" d="M28 694q-8 15 10 15h147q11 0 15 -9l70 -128q38 -70 69 -156q3 -9 9.5 -9t9.5 9q24 71 69 156l69 128q4 9 15 9h147q18 0 10 -15l-125 -234q-51 -97 -69 -136t-31.5 -94t-13.5 -123v-94q0 -13 -13 -13h-135q-13 0 -13 13v94q0 97 -22 159t-93 194z" />
<glyph unicode="Z" horiz-adv-x="636" d="M56 30q41 63 97 170l124 239q40 85 65 111q5 4 6 8t-2 6.5t-9 2.5h-261q-13 0 -13 13v116q0 13 13 13h492q10 0 16.5 -10t0.5 -20q-52 -77 -98 -169l-124 -240q-37 -68 -70 -112q-7 -10 -4.5 -13.5t14.5 -3.5h258q14 0 11 -15l-32 -115q-3 -11 -14 -11h-453 q-10 0 -16.5 10t-0.5 20z" />
<glyph unicode="[" horiz-adv-x="390" d="M85 -88v839q0 13 13 13h214q13 0 13 -13v-114q0 -13 -13 -13h-82v-586h82q13 0 13 -13v-113q0 -13 -13 -13h-214q-13 0 -13 13z" />
<glyph unicode="\" horiz-adv-x="572" d="M44 751q-7 15 10 15h124q11 0 15 -10l325 -842q7 -15 -10 -15h-123q-11 0 -15 10z" />
<glyph unicode="]" horiz-adv-x="390" d="M65 25q0 13 13 13h82v586h-82q-13 0 -13 13v114q0 13 13 13h214q13 0 13 -13v-839q0 -13 -13 -13h-214q-13 0 -13 13v113z" />
<glyph unicode="^" horiz-adv-x="532" d="M45 364l152 328q6 10 16 10h105q10 0 16 -10l152 -328q7 -15 -10 -15h-141q-11 0 -15 10l-54 142l-55 -142q-4 -10 -15 -10h-141q-17 0 -10 15z" />
<glyph unicode="_" horiz-adv-x="535" d="M-15 -93q0 13 13 13h539q13 0 13 -13v-112q0 -13 -13 -13h-539q-13 0 -13 13v112z" />
<glyph unicode="`" horiz-adv-x="341" d="M57 712q-9 16 9 16h147q11 0 15 -10l60 -146q3 -7 0 -11t-10 -4h-107q-10 0 -16 8z" />
<glyph unicode="a" horiz-adv-x="524" d="M30 149q0 70 52.5 109t145.5 39h94v2q-3 32 -29 50t-69 18q-28 0 -65 -10l-38 -11q-12 -3 -16 9l-31 104q-4 13 9 16l39 11q59 16 110 16q114 0 177.5 -51t63.5 -143v-295q0 -13 -13 -13h-75q-10 0 -16 9l-9 18q-9 19 -32 0q-43 -38 -108 -38q-89 0 -139.5 42t-50.5 118z M178 160q0 -44 57 -44q78 0 87 80v2h-94q-22 0 -36 -10.5t-14 -27.5z" />
<glyph unicode="b" horiz-adv-x="573" d="M55 68v647q0 13 13 13h133q13 0 13 -13v-109q0 -72 -24 -123q-6 -13 0 -18.5t18 3.5q49 34 113 34q100 0 158 -69t58 -187q0 -119 -65 -188t-179 -69q-68 0 -122 22l-106 42q-10 4 -10 15zM212 151l20 -9q33 -13 61 -13q42 0 65.5 31t23.5 86q0 54 -23.5 84.5t-63.5 30.5 q-42 0 -62.5 -27t-20.5 -71v-112z" />
<glyph unicode="c" horiz-adv-x="481" d="M35 246q0 119 66 187.5t187 68.5q44 0 80 -10l55 -15q13 -4 9 -17l-32 -110q-4 -12 -16 -9l-40 11q-30 9 -56 9q-98 0 -98 -114q0 -56 24.5 -87t72.5 -31q28 0 61 10l40 10q12 3 16 -9l33 -109q4 -13 -9 -16l-57 -16q-35 -10 -86 -10q-119 0 -184.5 68.5t-65.5 188.5z " />
<glyph unicode="d" horiz-adv-x="573" d="M35 246q0 118 62.5 187t170.5 69q41 0 65 -12l26 -11v236q0 13 13 13h132q13 0 13 -13v-702q0 -13 -13 -13h-70q-10 0 -15 9l-16 24q-10 15 -25 0q-50 -44 -127 -44q-100 0 -158 69t-58 188zM190 246q1 -54 25 -85.5t66 -31.5q37 0 58.5 26.5t21.5 68.5v116l-20 9 q-29 12 -62 12q-42 0 -65.5 -30.5t-23.5 -84.5z" />
<glyph unicode="e" horiz-adv-x="521" d="M35 245q0 119 65.5 188t182.5 69q93 0 147.5 -45.5t54.5 -123.5q0 -118 -171 -142l-117 -17q27 -50 91 -50q31 0 64 7l60 13q12 3 15 -9l28 -104q3 -13 -10 -16l-62 -15q-48 -11 -95 -11q-121 0 -187 68.5t-66 187.5zM187 276l104 16q46 4 46 39q0 36 -60 36 q-35 0 -61.5 -23.5t-28.5 -67.5z" />
<glyph unicode="f" horiz-adv-x="413" d="M30 365v113q0 13 13 13h52v43q0 96 56 150.5t156 54.5q38 0 78 -13l21 -6q12 -5 8 -16l-33 -110q-5 -12 -16 -8l-17 5q-22 7 -41 7q-25 0 -39.5 -17t-14.5 -47v-43h113q13 0 13 -13v-113q0 -13 -13 -13h-113v-339q0 -13 -13 -13h-132q-13 0 -13 13v339h-52q-13 0 -13 13z " />
<glyph unicode="g" horiz-adv-x="568" d="M35 242q0 123 65.5 191.5t180.5 68.5q69 0 121 -21l105 -42q10 -4 10 -15v-402q0 -122 -68.5 -187t-191.5 -65q-63 0 -103 11l-55 15q-13 4 -9 17l33 109q4 12 16 9l39 -11q32 -9 72 -9q106 0 137 77q6 14 6 31q0 15 -16 4q-45 -34 -120 -34q-104 0 -163 68.5t-59 184.5z M190 245q0 -53 22.5 -84.5t63.5 -31.5q85 0 85 101v110l-20 9q-27 12 -61 12q-43 0 -66.5 -30.5t-23.5 -85.5z" />
<glyph unicode="h" d="M55 13v702q0 13 13 13h133q13 0 13 -13v-109q0 -73 -25 -126q-5 -10 0 -15t17 2q50 35 108 35q89 0 139.5 -49t50.5 -136v-304q0 -13 -13 -13h-133q-13 0 -13 13v284q0 31 -15 47.5t-41 16.5q-73 0 -75 -102v-246q0 -13 -13 -13h-133q-13 0 -13 13z" />
<glyph unicode="i" horiz-adv-x="309" d="M30 365v113q0 13 13 13h197q13 0 13 -13v-465q0 -13 -13 -13h-132q-13 0 -13 13v339h-52q-13 0 -13 13zM72 647q0 43 23.5 67t65.5 24q43 0 66 -23.5t23 -67.5q0 -43 -23.5 -67.5t-65.5 -24.5t-65.5 24.5t-23.5 67.5z" />
<glyph unicode="j" horiz-adv-x="309" d="M7 -115q-6 11 5 17l18 11q65 38 65 103v336h-52q-13 0 -13 13v113q0 13 13 13h197q13 0 13 -13v-462q0 -74 -36.5 -129.5t-114.5 -100.5l-22 -12q-11 -8 -17 5zM73 647q0 43 23.5 67t65.5 24q43 0 66 -23.5t23 -67.5q0 -43 -23.5 -67.5t-65.5 -24.5t-65.5 24.5 t-23.5 67.5z" />
<glyph unicode="k" horiz-adv-x="569" d="M55 13v702q0 13 13 13h133q13 0 13 -13v-397h9q29 0 45.5 17t34.5 52l49 95q6 9 16 9h143q17 0 9 -15l-80 -156q-24 -46 -73 -65q-2 -1 -2.5 -3.5t2.5 -4.5q59 -27 79 -67l85 -165q8 -15 -9 -15h-143q-10 0 -16 9l-54 107q-17 32 -36 47.5t-51 15.5h-8v-166 q0 -13 -13 -13h-133q-13 0 -13 13z" />
<glyph unicode="l" horiz-adv-x="317" d="M55 148v567q0 13 13 13h133q13 0 13 -13v-567q0 -19 13 -19h6q13 3 17 -7l41 -104q5 -12 -6 -17q-27 -12 -58 -12q-80 0 -126 42t-46 117z" />
<glyph unicode="m" horiz-adv-x="828" d="M55 13v465q0 13 13 13h71q11 0 15 -9l13 -21q8 -11 14 -11t18 11q50 41 110 41q73 0 121 -45q16 -12 24.5 -11t22.5 12q54 44 114 44q90 0 138 -48.5t48 -136.5v-304q0 -13 -13 -13h-132q-13 0 -13 13v284q0 64 -53 64q-71 0 -71 -102v-246q0 -13 -13 -13h-132 q-13 0 -13 13v286q0 62 -53 62q-70 0 -70 -102v-246q0 -13 -13 -13h-133q-13 0 -13 13z" />
<glyph unicode="n" d="M55 13v465q0 13 13 13h71q11 0 15 -9l13 -21q7 -11 13 -11t18 10q49 42 116 42q89 0 139.5 -49t50.5 -136v-304q0 -13 -13 -13h-133q-13 0 -13 13v284q0 31 -15 47.5t-41 16.5q-75 0 -75 -102v-246q0 -13 -13 -13h-133q-13 0 -13 13z" />
<glyph unicode="o" horiz-adv-x="558" d="M35 246q0 117 65.5 186.5t178.5 69.5q112 0 177.5 -69.5t65.5 -186.5q0 -119 -65.5 -188t-177.5 -69q-113 0 -178.5 69t-65.5 188zM190 246q0 -55 24 -86t65 -31t64.5 31t23.5 86q0 54 -23.5 84.5t-64.5 30.5t-65 -30.5t-24 -84.5z" />
<glyph unicode="p" horiz-adv-x="573" d="M55 -206v684q0 13 13 13h71q11 0 15 -9l15 -24q10 -15 25 -1q52 45 128 45q100 0 157.5 -69t57.5 -187q0 -119 -62 -188t-170 -69q-39 0 -67 12l-24 10v-217q0 -13 -13 -13h-133q-13 0 -13 13zM212 151l20 -9q25 -13 61 -13q43 0 66 31t23 86q0 54 -23.5 84.5t-66.5 30.5 q-38 0 -59 -26.5t-21 -72.5v-111z" />
<glyph unicode="q" horiz-adv-x="568" d="M35 245q0 119 65.5 188t178.5 69q69 0 123 -22l105 -42q10 -4 10 -15v-629q0 -13 -13 -13h-132q-13 0 -13 13v91q0 71 25 126q5 9 -0.5 14.5t-17.5 -1.5q-47 -35 -114 -35q-100 0 -158.5 69t-58.5 187zM190 245q0 -54 22.5 -85t61.5 -31q87 0 87 98v113l-18 8 q-32 13 -64 13q-42 0 -65.5 -30.5t-23.5 -85.5z" />
<glyph unicode="r" horiz-adv-x="416" d="M55 13v465q0 13 13 13h71q11 0 15 -9l26 -40q7 -10 11.5 -11t13.5 8q32 34 66 47.5t87 15.5q13 0 13 -13v-115q0 -13 -13 -13q-83 -4 -113.5 -60.5t-30.5 -206.5v-81q0 -13 -13 -13h-133q-13 0 -13 13z" />
<glyph unicode="s" horiz-adv-x="484" d="M44 36l30 106q3 12 15 9l47 -12q63 -16 123 -16q39 0 39 27q0 23 -29 30l-79 20q-73 17 -107 51t-34 91q0 76 51.5 118t143.5 42q58 0 130 -16l50 -12q14 -3 9 -16l-30 -104q-3 -12 -15 -9l-51 12q-45 10 -93 10q-41 0 -41 -25q0 -18 26 -26l85 -20q72 -17 105.5 -52.5 t33.5 -93.5q0 -76 -51.5 -118.5t-142.5 -42.5q-81 0 -153 18l-53 13q-14 3 -9 16z" />
<glyph unicode="t" horiz-adv-x="419" d="M30 365v113q0 13 13 13h52v109q0 11 11 15l132 44q15 5 15 -11v-157h113q13 0 13 -13v-113q0 -13 -13 -13h-113v-182q0 -41 26 -41q14 0 25 4q13 5 18 -6l47 -96q5 -12 -4 -18q-36 -24 -86 -24q-87 0 -135.5 47.5t-48.5 133.5v182h-52q-13 0 -13 13z" />
<glyph unicode="u" d="M50 174v304q0 13 13 13h133q13 0 13 -13v-284q0 -31 15 -47.5t41 -16.5q75 0 75 102v246q0 13 13 13h133q13 0 13 -13v-465q0 -13 -13 -13h-71q-11 0 -15 9l-13 21q-7 11 -13 11t-18 -10q-49 -42 -116 -42q-89 0 -139.5 49t-50.5 136z" />
<glyph unicode="v" horiz-adv-x="565" d="M26 476q-7 15 10 15h137q11 0 15 -10l30 -84q39 -111 56 -210q1 -6 5 -8.5t8 0t5 8.5q13 98 55 210l30 84q4 10 15 10h137q17 0 10 -15l-68 -183q-62 -165 -94 -282q-3 -11 -14 -11h-160q-11 0 -14 11q-30 108 -94 282z" />
<glyph unicode="w" horiz-adv-x="829" d="M34 476q-3 15 11 15h133q12 0 15 -11l23 -96q26 -109 42 -202q1 -6 5 -8.5t8.5 0t5.5 8.5q3 16 60 229l18 69q3 11 15 11h89q11 0 14 -11l19 -69q48 -174 60 -229q1 -6 5 -8.5t8 0t5 8.5q14 89 42 202l23 96q3 11 15 11h133q14 0 11 -15l-68 -247q-41 -147 -57 -218 q-3 -11 -15 -11h-164q-12 0 -15 11l-21 86l-11 41q-3 10 -7 27t-8.5 37t-6.5 28q-1 6 -4 8.5t-6 0t-4 -8.5t-9.5 -43t-11.5 -49l-11 -41q-12 -44 -21 -86q-3 -11 -15 -11h-164q-12 0 -15 11q-12 52 -57 218z" />
<glyph unicode="x" d="M39 16l85 154q32 53 69 75q8 4 -1 9q-38 22 -67 70l-84 151q-9 16 9 16h144q10 0 15 -9l60 -115q8 -17 17 0l59 115q6 9 16 9h143q18 0 9 -16l-84 -151q-29 -52 -67 -70q-9 -5 -1 -9q43 -28 69 -75l85 -154q9 -16 -9 -16h-145q-10 0 -16 9l-59 114q-8 16 -17 0l-60 -114 q-5 -9 -15 -9h-146q-18 0 -9 16z" />
<glyph unicode="y" horiz-adv-x="565" d="M26 476q-7 15 10 15h137q11 0 15 -10l40 -113q34 -98 46 -183q1 -5 5 -7t8 0t5 8q12 85 46 182l39 112q4 11 15 11h137q17 0 10 -15l-255 -685q-4 -10 -15 -10h-134q-17 0 -10 15l36 97q24 74 18 129t-42 154z" />
<glyph unicode="z" horiz-adv-x="493" d="M51 25q26 40 53 92l76 153q20 41 48 71q9 11 -5 11h-153q-13 0 -13 13v113q0 13 13 13h368q10 0 15 -7.5t-1 -17.5q-22 -33 -50 -89l-78 -157q-21 -41 -46 -71q-9 -11 5 -11h152q14 0 11 -15l-32 -112q-3 -11 -14 -11h-336q-10 0 -14.5 8t1.5 17z" />
<glyph unicode="{" horiz-adv-x="411" d="M50 276v113q0 13 13 13h10q25 0 39 15t14 41v94q0 100 57 158t159 62q13 0 13 -13v-114q0 -13 -13 -14q-34 -3 -53 -23.5t-19 -55.5v-95q0 -81 -62 -116q-15 -9 0 -17q62 -35 62 -119v-91q0 -36 19 -57.5t53 -24.5q13 -1 13 -14v-112q0 -13 -13 -13q-102 4 -159 61.5 t-57 159.5v92q0 57 -53 57h-10q-13 0 -13 13z" />
<glyph unicode="|" horiz-adv-x="316" d="M86 -207v962q0 13 13 13h119q13 0 13 -13v-962q0 -13 -13 -13h-119q-13 0 -13 13z" />
<glyph unicode="}" horiz-adv-x="411" d="M56 18q0 13 13 14q34 3 53 24.5t19 57.5v91q0 84 62 119q15 8 0 17q-62 35 -62 116v95q0 35 -19 55.5t-53 23.5q-13 1 -13 14v114q0 13 13 13q102 -4 159 -62t57 -158v-94q0 -26 14 -41t39 -15h10q13 0 13 -13v-113q0 -13 -13 -13h-10q-53 0 -53 -57v-92 q0 -102 -57 -159.5t-159 -61.5q-13 0 -13 13v112z" />
<glyph unicode="~" horiz-adv-x="597" d="M47 268l63 108q45 77 122 77q42 0 73 -24l43 -37q11 -6 17 -6q9 0 13 10l26 46q4 9 15 9h122q18 0 9 -16l-62 -111q-41 -74 -122 -74q-44 0 -73 24l-48 37q-7 6 -11 6q-8 0 -15 -13l-26 -43q-5 -9 -15 -9h-122q-8 0 -10.5 4.5t1.5 11.5z" />
<glyph unicode="&#xa1;" horiz-adv-x="293" d="M50 406q0 44 24.5 68.5t67.5 24.5t67 -24.5t24 -68.5t-24 -68.5t-67 -24.5q-44 0 -68 24.5t-24 68.5zM62 -25q0 40 12.5 141.5t14.5 132.5q0 13 13 13h89q13 0 13 -13q2 -31 14.5 -132.5t12.5 -141.5v-185q0 -13 -13 -13h-143q-13 0 -13 13v185z" />
<glyph unicode="&#xa2;" horiz-adv-x="478" d="M35 464q0 97 43.5 161.5t125.5 85.5v95q0 13 13 13h119q13 0 13 -13v-92q11 -3 23 -6t26.5 -7t22.5 -6q13 -3 9 -16l-33 -110q-4 -12 -16 -9l-40 11q-30 9 -56 9q-97 0 -97 -115q0 -118 96 -118q25 0 61 9l40 11q12 3 16 -9l33 -109q4 -13 -9 -16l-57 -16q-5 -2 -19 -4 v-96q0 -13 -13 -13h-119q-13 0 -13 13v99q-81 21 -125 85.5t-44 162.5z" />
<glyph unicode="&#xa3;" horiz-adv-x="608" d="M33 283v115q0 13 13 13h73v66q0 114 68 178.5t183 64.5q60 0 125 -26l31 -11q12 -4 7 -17l-44 -110q-4 -12 -17 -7l-31 12q-40 14 -71 14q-41 0 -67.5 -26t-26.5 -72v-66h127q13 0 13 -13v-115q0 -13 -13 -13h-127v-58q0 -45 -8 -65q-4 -8 -1.5 -11.5t10.5 -1.5 q42 6 121 6h149q13 0 13 -13v-114q0 -13 -13 -13h-458q-10 0 -16.5 10t-1.5 20l18 30q30 47 30 131v79h-73q-13 0 -13 13z" />
<glyph unicode="&#xa4;" horiz-adv-x="657" d="M76 127q-9 9 0 18l61 61q-20 42 -20 90q0 47 20 89l-61 61q-9 9 0 18l84 85q9 9 18 0l63 -65q37 19 83 19q47 0 89 -21l66 66q9 9 18 0l85 -85q9 -9 0 -18l-69 -68q17 -37 17 -81q0 -46 -18 -82l70 -69q9 -9 0 -18l-85 -85q-9 -9 -18 0l-67 68q-39 -21 -88 -21 q-44 0 -82 18l-63 -65q-9 -10 -18 -1zM242 296q0 -33 24 -57t58 -24q33 0 57 24t24 57t-24 57t-57 24q-34 0 -58 -24t-24 -57z" />
<glyph unicode="&#xa5;" horiz-adv-x="706" d="M33 694q-4 7 -1 11t11 4h147q11 0 15 -9l70 -128q38 -70 69 -156q3 -9 9.5 -9t9.5 9q24 71 69 156l69 128q5 9 15 9h147q8 0 11 -4t-1 -11q-7 -13 -65 -121.5t-88 -165.5h63q13 0 13 -13v-85q0 -13 -13 -13h-116q-6 -16 -16 -46h132q13 0 13 -13v-85q0 -13 -13 -13h-148 l-1 -32v-94q0 -13 -13 -13h-135q-13 0 -13 13v94l-1 32h-149q-13 0 -13 13v85q0 13 13 13h133q-10 30 -16 46h-117q-13 0 -13 13v85q0 13 13 13h63q-30 57 -87.5 165t-65.5 122z" />
<glyph unicode="&#xa6;" horiz-adv-x="322" d="M86 151q0 13 13 13h125q13 0 13 -13v-358q0 -13 -13 -13h-125q-13 0 -13 13v358zM86 396v359q0 13 13 13h125q13 0 13 -13v-359q0 -13 -13 -13h-125q-13 0 -13 13z" />
<glyph unicode="&#xa7;" horiz-adv-x="624" d="M50 -160l39 108q5 12 16 8l68 -22q73 -23 138 -23q43 0 68 13t25 37q0 33 -38 49l-164 65q-143 57 -143 187q0 33 18 68.5t51 56.5q13 8 2 16q-61 56 -61 127q0 89 65.5 139.5t182.5 50.5q79 0 154 -26l64 -22q11 -4 8 -16l-40 -108q-3 -13 -16 -8l-57 18q-66 21 -112 21 q-89 0 -89 -53q0 -32 41 -50l153 -62q78 -31 114.5 -76.5t36.5 -112.5q0 -95 -62 -125q-14 -7 -3 -16q55 -49 55 -123q0 -92 -66.5 -141.5t-186.5 -49.5q-90 0 -188 33l-65 21q-12 4 -8 16zM209 273q0 -15 5.5 -26.5t10 -18t22 -15t23 -11t31.5 -12.5l53 -21q30 -12 50 2.5 t20 39.5q0 31 -19 49t-61 34l-61 24q-29 11 -51.5 -5t-22.5 -40z" />
<glyph unicode="&#xa8;" horiz-adv-x="445" d="M40 655q0 39 21 60.5t59 21.5t59 -21t21 -61q0 -39 -21 -61t-59 -22t-59 22t-21 61zM241 655q0 39 21 60.5t59 21.5t59 -21t21 -61q0 -39 -21 -61t-59 -22t-59 22t-21 61z" />
<glyph unicode="&#xa9;" horiz-adv-x="789" d="M38 354q0 165 98 265.5t258 100.5q161 0 259 -100.5t98 -265.5q0 -164 -98 -264.5t-259 -100.5q-160 0 -258 100.5t-98 264.5zM119 354q0 -128 75.5 -206.5t199.5 -78.5t200 78.5t76 206.5t-76 206t-200 78t-199.5 -78t-75.5 -206zM221 355q0 90 47 143t127 53 q42 0 82 -12l21 -7q11 -4 8 -16l-19 -54q-5 -12 -16 -8l-20 6q-27 8 -56 8q-40 0 -63 -29.5t-23 -83.5t23 -84t63 -30q35 0 56 7l20 6q12 3 16 -9l19 -52q3 -12 -8 -16l-21 -7q-39 -11 -82 -11q-80 0 -127 53t-47 143z" />
<glyph unicode="&#xaa;" horiz-adv-x="410" d="M30 431q0 59 38.5 92t107.5 33h85v3q0 25 -19.5 39t-56.5 14q-28 0 -57 -8l-27 -7q-11 -4 -16 8l-21 74q-3 12 9 16l30 8q41 12 86 12q88 0 137.5 -40t49.5 -113v-234q0 -13 -13 -13h-57q-3 0 -5.5 1t-4 1.5t-3 3.5t-2 3.5t-2.5 5l-2 4.5q-4 8 -16 1q-42 -28 -99 -28 q-67 0 -104.5 32.5t-37.5 91.5zM35 144v77q0 13 13 13h311q13 0 13 -13v-77q0 -13 -13 -13h-311q-13 0 -13 13zM143 442q0 -16 11.5 -25t33.5 -9q73 0 73 58v2h-85q-33 0 -33 -26z" />
<glyph unicode="&#xab;" horiz-adv-x="672" d="M57 246v1q0 10 5 16l116 175q6 8 16 8h139q8 0 10.5 -4.5t-2.5 -11.5l-126 -184l126 -184q5 -7 2.5 -11.5t-10.5 -4.5h-136q-11 0 -16 8l-119 176q-5 6 -5 16zM320 246v1q0 10 5 16l116 175q6 8 16 8h139q8 0 10.5 -4.5t-2.5 -11.5l-126 -184l126 -184q5 -7 2.5 -11.5 t-10.5 -4.5h-136q-11 0 -16 8l-119 176q-5 6 -5 16z" />
<glyph unicode="&#xad;" horiz-adv-x="434" d="M67 204v112q0 13 13 13h275q13 0 13 -13v-112q0 -13 -13 -13h-275q-13 0 -13 13z" />
<glyph unicode="&#xae;" horiz-adv-x="789" d="M38 354q0 165 98 265.5t258 100.5q161 0 259 -100.5t98 -265.5q0 -164 -98 -264.5t-259 -100.5q-160 0 -258 100.5t-98 264.5zM119 354q0 -128 75.5 -206.5t199.5 -78.5t200 78.5t76 206.5t-76 206t-200 78t-199.5 -78t-75.5 -206zM257 184v340q0 13 13 13h139 q62 0 95 -29.5t33 -82.5q0 -35 -17.5 -58.5t-42.5 -32.5q-11 -4 -1 -10q27 -17 48 -60l33 -78q5 -15 -10 -15h-64q-11 0 -15 10l-20 48q-17 39 -34.5 54.5t-57.5 15.5h-13v-115q0 -13 -13 -13h-60q-13 0 -13 13zM343 374h53q27 0 44 11.5t17 31.5t-14 30t-34 10h-66v-83z " />
<glyph unicode="&#xaf;" horiz-adv-x="382" d="M48 600v79q0 13 13 13h261q13 0 13 -13v-79q0 -13 -13 -13h-261q-13 0 -13 13z" />
<glyph unicode="&#xb0;" horiz-adv-x="380" d="M29 574q0 75 42.5 116t118.5 41t118.5 -41t42.5 -116q0 -74 -42.5 -116t-118.5 -42t-118.5 42t-42.5 116zM142 574q0 -25 13 -39.5t35 -14.5q23 0 35.5 14.5t12.5 39.5t-12.5 39.5t-35.5 14.5t-35.5 -14.5t-12.5 -39.5z" />
<glyph unicode="&#xb1;" horiz-adv-x="628" d="M67 314v113q0 13 13 13h162v175q0 13 13 13h119q13 0 13 -13v-175h161q13 0 13 -13v-113q0 -13 -13 -13h-161v-175q0 -13 -13 -13h-119q-13 0 -13 13v175h-162q-13 0 -13 13zM80 17q0 13 13 13h441q13 0 13 -13v-112q0 -13 -13 -13h-441q-13 0 -13 13v112z" />
<glyph unicode="&#xb4;" horiz-adv-x="341" d="M53 572l60 146q4 10 15 10h147q18 0 9 -16l-98 -147q-6 -8 -16 -8h-107q-7 0 -10 4t0 11z" />
<glyph unicode="&#xb5;" horiz-adv-x="564" d="M55 -206v506q0 13 13 13q-8 0 -8 13v152q0 13 13 13h133q13 0 13 -13v-284q0 -31 15 -47.5t41 -16.5q75 0 75 102v246q0 13 13 13h133q13 0 13 -13v-465q0 -13 -13 -13h-71q-11 0 -15 9l-13 21q-7 11 -13 11t-18 -10q-49 -42 -116 -42q-14 0 -36 2v-197q0 -13 -13 -13 h-133q-13 0 -13 13z" />
<glyph unicode="&#xb6;" horiz-adv-x="653" d="M95 514q0 92 53 143.5t147 51.5h280q13 0 13 -13v-683q0 -13 -13 -13h-82q-13 0 -13 13v592h-73v-592q0 -13 -13 -13h-83q-13 0 -13 13v312q-41 0 -85.5 18t-81 63.5t-36.5 107.5z" />
<glyph unicode="&#xb7;" horiz-adv-x="273" d="M50 259q0 44 24 68.5t67 24.5q44 0 68 -24.5t24 -68.5t-24.5 -68.5t-67.5 -24.5t-67 24.5t-24 68.5z" />
<glyph unicode="&#xb8;" horiz-adv-x="349" d="M80 -200l25 73q4 12 16 8l12 -4q12 -3 27 -3q19 0 19 18q0 19 -22 19h-37q-10 0 -15 9q-4 4 -1 15l27 79q4 11 15 11h57q7 0 10 -4t0 -11l-17 -41h7q29 0 49.5 -26t20.5 -67q0 -48 -29.5 -77t-83.5 -29q-27 0 -56 9l-16 5q-12 5 -8 16z" />
<glyph unicode="&#xba;" horiz-adv-x="446" d="M33 511q0 94 51.5 149t138.5 55t138.5 -55t51.5 -149q0 -93 -51.5 -148.5t-138.5 -55.5t-138.5 55.5t-51.5 148.5zM54 144v77q0 13 13 13h311q13 0 13 -13v-77q0 -13 -13 -13h-311q-13 0 -13 13zM146 511q0 -47 20.5 -74t56.5 -27t56.5 27t20.5 74t-20.5 74t-56.5 27 t-56.5 -27t-20.5 -74z" />
<glyph unicode="&#xbb;" horiz-adv-x="672" d="M68 62l126 184l-126 184q-5 7 -2.5 11.5t10.5 4.5h139q10 0 16 -8l116 -175q5 -6 5 -16v-1q0 -10 -5 -16l-119 -176q-6 -8 -16 -8h-136q-8 0 -10.5 4.5t2.5 11.5zM331 62l126 184l-126 184q-5 7 -2.5 11.5t10.5 4.5h139q10 0 16 -8l116 -175q5 -6 5 -16v-1q0 -10 -5 -16 l-119 -176q-6 -8 -16 -8h-136q-8 0 -10.5 4.5t2.5 11.5z" />
<glyph unicode="&#xbc;" horiz-adv-x="879" d="M19 638q-5 13 7 16l163 58q10 3 18 -3.5t8 -16.5v-367q0 -13 -13 -13h-85q-13 0 -13 13v182q0 35 4 55q2 5 0 7t-7 0l-38 -13q-12 -5 -17 8zM133 16l442 684q6 9 16 9h92q8 0 10.5 -4.5t-1.5 -11.5l-442 -684q-6 -9 -16 -9h-92q-8 0 -10.5 4.5t1.5 11.5zM517 100v73 q0 9 6 16q21 25 34 43l77 115q12 17 24 41q6 9 16 9h119q13 0 13 -13v-209h31q13 0 13 -13v-62q0 -13 -13 -13h-31v-72q0 -13 -13 -13h-85q-13 0 -13 13v72h-165q-13 0 -13 13zM629 185q-4 -5 -2 -7.5t8 -2.5h60v16q0 38 6 78q1 7 -3 8.5t-8 -5.5l-39 -60q-13 -18 -22 -27z " />
<glyph unicode="&#xbd;" horiz-adv-x="922" d="M19 638q-5 13 7 16l163 58q10 3 18 -3.5t8 -16.5v-367q0 -13 -13 -13h-85q-13 0 -13 13v182q0 35 4 55q2 5 0 7t-7 0l-38 -13q-12 -5 -17 8zM133 16l442 684q6 9 16 9h92q8 0 10.5 -4.5t-1.5 -11.5l-443 -684q-5 -9 -15 -9h-92q-8 0 -10.5 4.5t1.5 11.5zM596 15v48 q0 118 83 159l79 38q13 8 13 17q0 10 -8 16.5t-22 6.5q-28 0 -65 -13l-37 -13q-11 -4 -16 8l-26 76q-4 12 9 16l37 12q49 17 98 17q68 0 105.5 -33t37.5 -93q0 -72 -73 -106l-83 -40q-17 -8 -17 -28h153q13 0 13 -13v-75q0 -13 -13 -13h-255q-13 0 -13 13z" />
<glyph unicode="&#xbe;" horiz-adv-x="965" d="M28 352l27 73q3 13 16 8l36 -11q33 -12 62 -12q49 0 49 26q0 24 -40 24h-34q-13 0 -13 13v75q0 13 13 13h33q25 0 25 24q0 11 -9 19t-25 8q-24 0 -53 -10l-31 -10q-11 -4 -16 8l-25 74q-4 11 8 16l33 11q37 14 84 14q69 0 108 -31t39 -85t-41 -78q-9 -6 0 -11 q56 -29 56 -85q0 -57 -42 -87.5t-119 -30.5q-41 0 -95 16l-38 13q-11 4 -8 16zM219 16l442 684q6 9 16 9h92q8 0 10.5 -4.5t-1.5 -11.5l-442 -684q-6 -9 -16 -9h-92q-8 0 -10.5 4.5t1.5 11.5zM603 100v73q0 9 6 16q21 25 34 43l77 115q12 17 24 41q6 9 16 9h119q13 0 13 -13 v-209h31q13 0 13 -13v-62q0 -13 -13 -13h-31v-72q0 -13 -13 -13h-85q-13 0 -13 13v72h-165q-13 0 -13 13zM715 185q-4 -5 -2 -7.5t8 -2.5h60v16q0 38 6 78q1 7 -3 8.5t-8 -5.5l-39 -60q-13 -18 -22 -27z" />
<glyph unicode="&#xbf;" horiz-adv-x="496" d="M11 -32q0 49 22.5 87.5t72.5 75.5l65 46q20 16 20 47v34q0 13 13 13h132q13 0 13 -13v-34q0 -56 -19 -94t-66 -72l-69 -49q-25 -17 -25 -41q0 -20 25.5 -34.5t61.5 -14.5q62 0 123 20l64 21q13 5 16 -8l43 -117q4 -12 -8 -16l-68 -23q-87 -28 -170 -28q-121 0 -183.5 53 t-62.5 147zM173 407q0 44 24.5 68.5t67.5 24.5t67 -24.5t24 -68.5t-24 -68.5t-67 -24.5q-44 0 -68 24.5t-24 68.5z" />
<glyph unicode="&#xc0;" horiz-adv-x="748" d="M30 15l141 382q65 178 95 301q3 11 15 11h186q12 0 15 -11q30 -123 95 -301l141 -382q5 -15 -11 -15h-141q-11 0 -15 10l-30 84h-294l-30 -84q-4 -10 -15 -10h-141q-16 0 -11 15zM186 911q-6 6 -4 11t11 5h175q10 0 15 -9l65 -117q9 -16 -9 -16h-125q-10 0 -16 7z M278 235h192l-14 40q-58 159 -73 238q-2 9 -9 9t-9 -9q-16 -82 -73 -238z" />
<glyph unicode="&#xc1;" horiz-adv-x="748" d="M30 15l141 382q65 178 95 301q3 11 15 11h186q12 0 15 -11q30 -123 95 -301l141 -382q5 -15 -11 -15h-141q-11 0 -15 10l-30 84h-294l-30 -84q-4 -10 -15 -10h-141q-16 0 -11 15zM278 235h192l-14 40q-58 159 -73 238q-2 9 -9 9t-9 -9q-16 -82 -73 -238zM291 801l65 117 q4 9 15 9h175q9 0 11 -5t-4 -11l-112 -119q-6 -7 -16 -7h-125q-18 0 -9 16z" />
<glyph unicode="&#xc2;" horiz-adv-x="748" d="M30 15l141 382q65 178 95 301q3 11 15 11h186q12 0 15 -11q30 -123 95 -301l141 -382q5 -15 -11 -15h-141q-11 0 -15 10l-30 84h-294l-30 -84q-4 -10 -15 -10h-141q-16 0 -11 15zM178 801l99 119q6 7 16 7h161q10 0 16 -7l100 -119q5 -7 2.5 -11.5t-10.5 -4.5h-113 q-9 0 -16 6l-59 50l-59 -50q-7 -6 -16 -6h-113q-8 0 -10.5 4.5t2.5 11.5zM278 235h192l-14 40q-58 159 -73 238q-2 9 -9 9t-9 -9q-16 -82 -73 -238z" />
<glyph unicode="&#xc3;" horiz-adv-x="748" d="M30 15l141 382q65 178 95 301q3 11 15 11h186q12 0 15 -11q30 -123 95 -301l141 -382q5 -15 -11 -15h-141q-11 0 -15 10l-30 84h-294l-30 -84q-4 -10 -15 -10h-141q-16 0 -11 15zM185 807l27 52q30 61 102 61q28 0 68 -18l29 -12q16 -6 19 -6q14 0 21 15l5 9q4 9 15 9h83 q17 0 9 -15l-27 -55q-30 -58 -103 -58q-23 0 -64 16l-33 13q-16 6 -20 6q-12 0 -20 -14q-8 -18 -20 -18h-82q-17 0 -9 15zM278 235h192l-14 40q-58 159 -73 238q-2 9 -9 9t-9 -9q-16 -82 -73 -238z" />
<glyph unicode="&#xc4;" horiz-adv-x="748" d="M30 15l141 382q65 178 95 301q3 11 15 11h186q12 0 15 -11q30 -123 95 -301l141 -382q5 -15 -11 -15h-141q-11 0 -15 10l-30 84h-294l-30 -84q-4 -10 -15 -10h-141q-16 0 -11 15zM169 856q0 82 88 82q87 0 87 -82t-87 -82q-88 0 -88 82zM278 235h192l-14 40 q-58 159 -73 238q-2 9 -9 9t-9 -9q-16 -82 -73 -238zM397 856q0 82 88 82q87 0 87 -82t-87 -82q-88 0 -88 82z" />
<glyph unicode="&#xc5;" horiz-adv-x="748" d="M30 15l141 382q65 178 95 301q3 11 15 11h186q12 0 15 -11q30 -123 95 -301l141 -382q5 -15 -11 -15h-141q-11 0 -15 10l-30 84h-294l-30 -84q-4 -10 -15 -10h-141q-16 0 -11 15zM264 852q0 44 29 69t80 25t80 -25t29 -69q0 -42 -29 -66t-80 -24t-80 24t-29 66zM278 235 h192l-14 40q-58 159 -73 238q-2 9 -9 9t-9 -9q-16 -82 -73 -238zM335 852q0 -36 38 -36q37 0 37 36q0 37 -37 37q-38 0 -38 -37z" />
<glyph unicode="&#xc6;" horiz-adv-x="952" d="M31 15l125 341q82 225 110 342q3 11 15 11h618q14 0 11 -15l-33 -116q-3 -11 -14 -11h-324q-12 0 -12 -14q0 -11 15 -56l22 -62h247q13 0 13 -13v-115q0 -13 -13 -13h-196l56 -153h222q13 0 13 -13v-115q0 -13 -13 -13h-327q-11 0 -15 10l-30 84h-294l-30 -84 q-4 -10 -15 -10h-141q-17 0 -10 15zM277 235h193l-26 72q-41 116 -60 204q-2 7 -6 10t-8 0t-5 -10q-19 -82 -61 -202z" />
<glyph unicode="&#xc7;" horiz-adv-x="630" d="M45 355q0 168 87 266.5t237 98.5q83 0 149 -21l46 -15q12 -5 8 -16l-36 -113q-5 -12 -16 -8l-47 15q-42 13 -104 13q-75 0 -118 -58t-43 -162q0 -105 43 -163.5t118 -58.5q58 0 103 15l47 14q13 5 16 -8l40 -109q4 -12 -8 -16l-48 -16q-66 -23 -139 -24l-8 -20h7 q29 0 49.5 -26t20.5 -67q0 -48 -29.5 -77t-83.5 -29q-27 0 -56 9l-16 5q-12 5 -8 16l25 73q4 12 16 8l12 -4q12 -3 27 -3q19 0 19 18q0 19 -22 19h-37q-10 0 -15 9q-4 4 -1 15l21 60q-120 22 -188 117t-68 243z" />
<glyph unicode="&#xc8;" horiz-adv-x="613" d="M65 13v683q0 13 13 13h481q14 0 11 -15l-32 -116q-3 -11 -14 -11h-297v-132h245q13 0 13 -13v-115q0 -13 -13 -13h-245v-153h327q13 0 13 -13v-115q0 -13 -13 -13h-476q-13 0 -13 13zM133 911q-6 6 -4 11t11 5h175q11 0 15 -9l65 -117q9 -16 -9 -16h-125q-10 0 -16 7z " />
<glyph unicode="&#xc9;" horiz-adv-x="613" d="M65 13v683q0 13 13 13h481q14 0 11 -15l-32 -116q-3 -11 -14 -11h-297v-132h245q13 0 13 -13v-115q0 -13 -13 -13h-245v-153h327q13 0 13 -13v-115q0 -13 -13 -13h-476q-13 0 -13 13zM239 801l65 117q4 9 15 9h175q9 0 11 -5t-4 -11l-112 -119q-6 -7 -16 -7h-125 q-18 0 -9 16z" />
<glyph unicode="&#xca;" horiz-adv-x="613" d="M65 13v683q0 13 13 13h481q14 0 11 -15l-32 -116q-3 -11 -14 -11h-297v-132h245q13 0 13 -13v-115q0 -13 -13 -13h-245v-153h327q13 0 13 -13v-115q0 -13 -13 -13h-476q-13 0 -13 13zM125 801l99 119q6 7 16 7h161q10 0 16 -7l100 -119q5 -7 2.5 -11.5t-10.5 -4.5h-113 q-8 0 -16 6l-59 50l-59 -50q-7 -6 -16 -6h-113q-8 0 -10.5 4.5t2.5 11.5z" />
<glyph unicode="&#xcb;" horiz-adv-x="613" d="M65 13v683q0 13 13 13h481q14 0 11 -15l-32 -116q-3 -11 -14 -11h-297v-132h245q13 0 13 -13v-115q0 -13 -13 -13h-245v-153h327q13 0 13 -13v-115q0 -13 -13 -13h-476q-13 0 -13 13zM116 856q0 82 88 82q87 0 87 -82t-87 -82q-88 0 -88 82zM344 856q0 82 88 82 q87 0 87 -82t-87 -82q-88 0 -88 82z" />
<glyph unicode="&#xcc;" horiz-adv-x="292" d="M-41 911q-6 6 -4 11t11 5h175q11 0 15 -9l65 -117q9 -16 -9 -16h-125q-10 0 -16 7zM65 13v683q0 13 13 13h136q13 0 13 -13v-683q0 -13 -13 -13h-136q-13 0 -13 13z" />
<glyph unicode="&#xcd;" horiz-adv-x="292" d="M64 801l65 117q5 9 15 9h175q9 0 11 -5t-4 -11l-112 -119q-6 -7 -16 -7h-125q-18 0 -9 16zM65 13v683q0 13 13 13h136q13 0 13 -13v-683q0 -13 -13 -13h-136q-13 0 -13 13z" />
<glyph unicode="&#xce;" horiz-adv-x="292" d="M-49 801l99 119q6 7 16 7h161q10 0 16 -7l100 -119q5 -7 2.5 -11.5t-10.5 -4.5h-113q-8 0 -16 6l-59 50l-59 -50q-8 -6 -16 -6h-113q-8 0 -10.5 4.5t2.5 11.5zM65 13v683q0 13 13 13h136q13 0 13 -13v-683q0 -13 -13 -13h-136q-13 0 -13 13z" />
<glyph unicode="&#xcf;" horiz-adv-x="292" d="M-58 856q0 82 88 82q87 0 87 -82t-87 -82q-88 0 -88 82zM65 13v683q0 13 13 13h136q13 0 13 -13v-683q0 -13 -13 -13h-136q-13 0 -13 13zM170 856q0 82 88 82q87 0 87 -82t-87 -82q-88 0 -88 82z" />
<glyph unicode="&#xd0;" horiz-adv-x="754" d="M30 302v115q0 13 13 13h85v266q0 13 13 13h248q149 0 234.5 -95.5t85.5 -259.5q0 -160 -87 -257t-233 -97h-248q-13 0 -13 13v276h-85q-13 0 -13 13zM290 141h99q73 0 115 56t42 157q0 102 -42 157.5t-115 55.5h-99v-137h100q13 0 13 -13v-115q0 -13 -13 -13h-100v-148z " />
<glyph unicode="&#xd1;" horiz-adv-x="732" d="M65 13v683q0 13 13 13h178q11 0 15 -10q7 -14 51 -106l143 -290q20 -44 36 -73q5 -12 11.5 -9.5t4.5 13.5q-11 68 -11 180v282q0 13 13 13h135q13 0 13 -13v-683q0 -13 -13 -13h-178q-11 0 -15 10q-11 25 -50 106l-142 288q-18 36 -36 75q-6 11 -12 8.5t-5 -12.5 q11 -77 11 -182v-280q0 -13 -13 -13h-136q-13 0 -13 13zM178 807l27 52q30 61 102 61q27 0 68 -18l29 -12q16 -6 19 -6q14 0 21 15l5 9q5 9 15 9h83q17 0 9 -15l-27 -55q-30 -58 -103 -58q-23 0 -64 16l-33 13q-16 6 -20 6q-12 0 -20 -14q-8 -18 -20 -18h-82q-17 0 -9 15z " />
<glyph unicode="&#xd2;" horiz-adv-x="727" d="M45 355q0 169 85.5 267t233.5 98t233 -98t85 -267q0 -168 -85.5 -267t-232.5 -99q-148 0 -233.5 98.5t-85.5 267.5zM176 911q-6 6 -4 11t11 5h175q10 0 15 -9l65 -117q9 -16 -9 -16h-125q-10 0 -16 7zM208 355q0 -103 41.5 -162.5t114.5 -59.5t114 59.5t41 162.5 q0 105 -41 162.5t-114 57.5t-114.5 -58t-41.5 -162z" />
<glyph unicode="&#xd3;" horiz-adv-x="727" d="M45 355q0 169 85.5 267t233.5 98t233 -98t85 -267q0 -168 -85.5 -267t-232.5 -99q-148 0 -233.5 98.5t-85.5 267.5zM208 355q0 -103 41.5 -162.5t114.5 -59.5t114 59.5t41 162.5q0 105 -41 162.5t-114 57.5t-114.5 -58t-41.5 -162zM281 801l65 117q4 9 15 9h175 q9 0 11 -5t-4 -11l-112 -119q-6 -7 -16 -7h-125q-18 0 -9 16z" />
<glyph unicode="&#xd4;" horiz-adv-x="727" d="M45 355q0 169 85.5 267t233.5 98t233 -98t85 -267q0 -168 -85.5 -267t-232.5 -99q-148 0 -233.5 98.5t-85.5 267.5zM168 801l99 119q6 7 16 7h161q10 0 16 -7l100 -119q5 -7 2.5 -11.5t-10.5 -4.5h-113q-9 0 -16 6l-59 50l-59 -50q-7 -6 -16 -6h-113q-8 0 -10.5 4.5 t2.5 11.5zM208 355q0 -103 41.5 -162.5t114.5 -59.5t114 59.5t41 162.5q0 105 -41 162.5t-114 57.5t-114.5 -58t-41.5 -162z" />
<glyph unicode="&#xd5;" horiz-adv-x="727" d="M45 355q0 169 85.5 267t233.5 98t233 -98t85 -267q0 -168 -85.5 -267t-232.5 -99q-148 0 -233.5 98.5t-85.5 267.5zM175 807l27 52q30 61 102 61q28 0 68 -18l29 -12q16 -6 19 -6q14 0 21 15l5 9q4 9 15 9h83q17 0 9 -15l-27 -55q-30 -58 -103 -58q-23 0 -64 16l-33 13 q-16 6 -20 6q-12 0 -20 -14q-8 -18 -20 -18h-82q-17 0 -9 15zM208 355q0 -103 41.5 -162.5t114.5 -59.5t114 59.5t41 162.5q0 105 -41 162.5t-114 57.5t-114.5 -58t-41.5 -162z" />
<glyph unicode="&#xd6;" horiz-adv-x="727" d="M45 355q0 169 85.5 267t233.5 98t233 -98t85 -267q0 -168 -85.5 -267t-232.5 -99q-148 0 -233.5 98.5t-85.5 267.5zM159 856q0 82 88 82q87 0 87 -82t-87 -82q-88 0 -88 82zM208 355q0 -103 41.5 -162.5t114.5 -59.5t114 59.5t41 162.5q0 105 -41 162.5t-114 57.5 t-114.5 -58t-41.5 -162zM387 856q0 82 88 82q87 0 87 -82t-87 -82q-88 0 -88 82z" />
<glyph unicode="&#xd7;" horiz-adv-x="657" d="M76 91q-9 9 0 18l151 149l-151 151q-9 9 0 18l84 85q9 9 18 0l151 -151l150 150q9 9 18 0l85 -85q9 -9 0 -18l-151 -150l151 -149q9 -9 0 -18l-85 -85q-9 -9 -18 0l-150 150l-150 -151q-9 -9 -18 0z" />
<glyph unicode="&#xd8;" horiz-adv-x="737" d="M50 355q0 169 85.5 267t233.5 98q104 0 180 -51l24 32q5 8 16 8h78q8 0 10.5 -4.5t-2.5 -11.5l-63 -84q75 -95 75 -254q0 -168 -85.5 -267t-232.5 -99q-106 0 -181 52l-24 -33q-5 -8 -16 -8h-78q-8 0 -10.5 4.5t2.5 11.5l63 85q-75 97 -75 254zM213 355q0 -65 17 -114 l227 304q-36 30 -88 30q-73 0 -114.5 -58t-41.5 -162zM280 164q37 -31 89 -31q73 0 114 59.5t41 162.5q0 65 -17 113z" />
<glyph unicode="&#xd9;" horiz-adv-x="678" d="M55 293v403q0 13 13 13h136q13 0 13 -13v-403q0 -77 32 -118.5t90 -41.5t90 41.5t32 118.5v403q0 13 13 13h135q13 0 13 -13v-403q0 -145 -74 -224.5t-209 -79.5q-134 0 -209 79.5t-75 224.5zM151 911q-6 6 -4 11t11 5h175q11 0 15 -9l65 -117q9 -16 -9 -16h-125 q-10 0 -16 7z" />
<glyph unicode="&#xda;" horiz-adv-x="678" d="M55 293v403q0 13 13 13h136q13 0 13 -13v-403q0 -77 32 -118.5t90 -41.5t90 41.5t32 118.5v403q0 13 13 13h135q13 0 13 -13v-403q0 -145 -74 -224.5t-209 -79.5q-134 0 -209 79.5t-75 224.5zM257 801l65 117q4 9 15 9h175q9 0 11 -5t-4 -11l-112 -119q-6 -7 -16 -7h-125 q-18 0 -9 16z" />
<glyph unicode="&#xdb;" horiz-adv-x="678" d="M55 293v403q0 13 13 13h136q13 0 13 -13v-403q0 -77 32 -118.5t90 -41.5t90 41.5t32 118.5v403q0 13 13 13h135q13 0 13 -13v-403q0 -145 -74 -224.5t-209 -79.5q-134 0 -209 79.5t-75 224.5zM143 801l99 119q6 7 16 7h161q10 0 16 -7l100 -119q5 -7 2.5 -11.5 t-10.5 -4.5h-113q-8 0 -16 6l-59 50l-59 -50q-8 -6 -16 -6h-113q-8 0 -10.5 4.5t2.5 11.5z" />
<glyph unicode="&#xdc;" horiz-adv-x="678" d="M55 293v403q0 13 13 13h136q13 0 13 -13v-403q0 -77 32 -118.5t90 -41.5t90 41.5t32 118.5v403q0 13 13 13h135q13 0 13 -13v-403q0 -145 -74 -224.5t-209 -79.5q-134 0 -209 79.5t-75 224.5zM134 856q0 82 88 82q87 0 87 -82t-87 -82q-88 0 -88 82zM362 856q0 82 88 82 q87 0 87 -82t-87 -82q-88 0 -88 82z" />
<glyph unicode="&#xdd;" horiz-adv-x="696" d="M28 694q-8 15 10 15h147q11 0 15 -9l70 -128q38 -70 69 -156q3 -9 9.5 -9t9.5 9q24 71 69 156l69 128q4 9 15 9h147q18 0 10 -15l-125 -234q-51 -97 -69 -136t-31.5 -94t-13.5 -123v-94q0 -13 -13 -13h-135q-13 0 -13 13v94q0 97 -22 159t-93 194zM266 801l65 117 q5 9 15 9h175q9 0 11 -5t-4 -11l-112 -119q-6 -7 -16 -7h-125q-18 0 -9 16z" />
<glyph unicode="&#xde;" horiz-adv-x="651" d="M65 13v683q0 13 13 13h136q13 0 13 -13v-98h109q125 0 195 -63t70 -176t-70 -176t-195 -63h-109v-107q0 -13 -13 -13h-136q-13 0 -13 13zM227 262h109q48 0 75 25.5t27 71.5t-27 72t-75 26h-109v-195z" />
<glyph unicode="&#xdf;" horiz-adv-x="650" d="M55 13v461q0 125 68.5 195t189.5 70q111 0 171.5 -51.5t60.5 -144.5q0 -60 -47 -114l-34 -38q-15 -16 -15 -26q0 -15 30 -32l37 -23q54 -35 78.5 -70t24.5 -85q0 -80 -48 -123t-140 -43q-64 0 -117 16l-44 13q-13 4 -9 17l35 110q5 12 16 8l35 -10q45 -14 84 -14 q33 0 33 26q0 15 -22 28l-53 33q-95 57 -95 135q0 62 50 119l27 29q19 23 19 44q0 26 -20.5 40.5t-56.5 14.5q-47 0 -73 -33t-26 -91v-461q0 -13 -13 -13h-133q-13 0 -13 13z" />
<glyph unicode="&#xe0;" horiz-adv-x="524" d="M30 149q0 70 52.5 109t145.5 39h94v2q-3 32 -29 50t-69 18q-28 0 -65 -10l-38 -11q-12 -3 -16 9l-31 104q-4 13 9 16l39 11q59 16 110 16q114 0 177.5 -51t63.5 -143v-295q0 -13 -13 -13h-75q-10 0 -16 9l-9 18q-9 19 -32 0q-43 -38 -108 -38q-89 0 -139.5 42t-50.5 118z M103 712q-9 16 9 16h147q11 0 15 -10l60 -146q3 -7 0 -11t-10 -4h-107q-10 0 -16 8zM178 160q0 -44 57 -44q78 0 87 80v2h-94q-22 0 -36 -10.5t-14 -27.5z" />
<glyph unicode="&#xe1;" horiz-adv-x="524" d="M30 149q0 70 52.5 109t145.5 39h94v2q-3 32 -29 50t-69 18q-28 0 -65 -10l-38 -11q-12 -3 -16 9l-31 104q-4 13 9 16l39 11q59 16 110 16q114 0 177.5 -51t63.5 -143v-295q0 -13 -13 -13h-75q-10 0 -16 9l-9 18q-9 19 -32 0q-43 -38 -108 -38q-89 0 -139.5 42t-50.5 118z M178 160q0 -44 57 -44q78 0 87 80v2h-94q-22 0 -36 -10.5t-14 -27.5zM189 572l60 146q4 10 15 10h147q18 0 9 -16l-98 -147q-6 -8 -16 -8h-107q-7 0 -10 4t0 11z" />
<glyph unicode="&#xe2;" horiz-adv-x="524" d="M30 149q0 70 52.5 109t145.5 39h94v2q-3 32 -29 50t-69 18q-28 0 -65 -10l-38 -11q-12 -3 -16 9l-31 104q-4 13 9 16l39 11q59 16 110 16q114 0 177.5 -51t63.5 -143v-295q0 -13 -13 -13h-75q-10 0 -16 9l-9 18q-9 19 -32 0q-43 -38 -108 -38q-89 0 -139.5 42t-50.5 118z M88 573l97 147q6 8 16 8h118q10 0 16 -8l98 -147q9 -16 -9 -16h-95q-10 0 -16 7l-53 63l-52 -63q-6 -7 -16 -7h-95q-18 0 -9 16zM178 160q0 -44 57 -44q78 0 87 80v2h-94q-22 0 -36 -10.5t-14 -27.5z" />
<glyph unicode="&#xe3;" horiz-adv-x="524" d="M30 149q0 70 52.5 109t145.5 39h94v2q-3 32 -29 50t-69 18q-28 0 -65 -10l-38 -11q-12 -3 -16 9l-31 104q-4 13 9 16l39 11q59 16 110 16q114 0 177.5 -51t63.5 -143v-295q0 -13 -13 -13h-75q-10 0 -16 9l-9 18q-9 19 -32 0q-43 -38 -108 -38q-89 0 -139.5 42t-50.5 118z M95 615l26 54q31 63 94 63q35 0 60 -18l24 -19q8 -7 16 -7q6 0 17 18l9 13q5 9 15 9h71q17 0 9 -15l-27 -55q-17 -33 -38.5 -47.5t-54.5 -14.5q-32 0 -63 20l-23 15q-11 8 -15 8q-8 0 -17 -16l-9 -14q-5 -9 -15 -9h-70q-17 0 -9 15zM178 160q0 -44 57 -44q78 0 87 80v2h-94 q-22 0 -36 -10.5t-14 -27.5z" />
<glyph unicode="&#xe4;" horiz-adv-x="524" d="M30 149q0 70 52.5 109t145.5 39h94v2q-3 32 -29 50t-69 18q-28 0 -65 -10l-38 -11q-12 -3 -16 9l-31 104q-4 13 9 16l39 11q59 16 110 16q114 0 177.5 -51t63.5 -143v-295q0 -13 -13 -13h-75q-10 0 -16 9l-9 18q-9 19 -32 0q-43 -38 -108 -38q-89 0 -139.5 42t-50.5 118z M79 655q0 39 21 60.5t59 21.5t59 -21t21 -61q0 -39 -21 -61t-59 -22t-59 22t-21 61zM178 160q0 -44 57 -44q78 0 87 80v2h-94q-22 0 -36 -10.5t-14 -27.5zM280 655q0 39 21 60.5t59 21.5t59 -21t21 -61q0 -39 -21 -61t-59 -22t-59 22t-21 61z" />
<glyph unicode="&#xe5;" horiz-adv-x="524" d="M30 149q0 70 52.5 109t145.5 39h94v2q-3 32 -29 50t-69 18q-28 0 -65 -10l-38 -11q-12 -3 -16 9l-31 104q-4 13 9 16l39 11q59 16 110 16q114 0 177.5 -51t63.5 -143v-295q0 -13 -13 -13h-75q-10 0 -16 9l-9 18q-9 19 -32 0q-43 -38 -108 -38q-89 0 -139.5 42t-50.5 118z M156 642q0 44 28 69t77 25q48 0 75 -25t27 -69t-27 -69t-75 -25q-49 0 -77 25t-28 69zM178 160q0 -44 57 -44q78 0 87 80v2h-94q-22 0 -36 -10.5t-14 -27.5zM219 642q0 -35 42 -35q40 0 40 35t-40 35q-42 0 -42 -35z" />
<glyph unicode="&#xe6;" horiz-adv-x="799" d="M30 155q0 61 47.5 101.5t153.5 40.5h91l-2 10q-11 60 -91 60q-39 0 -70 -9l-41 -11q-11 -4 -16 8l-29 105q-4 13 9 16l55 15q40 11 94 11q96 0 163 -54q12 -8 21 0q59 54 142 54q95 0 148.5 -46.5t53.5 -129.5q0 -57 -43 -90t-132 -46l-108 -15q5 -20 31 -35.5t50 -15.5 q38 0 73 8l57 13q12 3 15 -9l29 -105q3 -13 -10 -16l-60 -14q-53 -12 -104 -12q-94 0 -154 63q-10 12 -21 1q-62 -64 -154 -64q-93 0 -145.5 43.5t-52.5 122.5zM178 157q0 -18 14 -29.5t35 -11.5q89 0 95 82h-94q-50 0 -50 -41zM466 277l107 15q38 8 38 35q0 40 -54 40 q-35 0 -59.5 -22t-31.5 -68z" />
<glyph unicode="&#xe7;" horiz-adv-x="481" d="M35 246q0 119 66 187.5t187 68.5q44 0 80 -10l55 -15q13 -4 9 -17l-32 -110q-4 -12 -16 -9l-40 11q-30 9 -56 9q-98 0 -98 -114q0 -56 24.5 -87t72.5 -31q28 0 61 10l40 10q12 3 16 -9l33 -109q4 -13 -9 -16l-57 -16q-37 -10 -81 -10l-8 -20h7q29 0 49.5 -26t20.5 -67 q0 -48 -29.5 -77t-83.5 -29q-27 0 -56 9l-16 5q-12 5 -8 16l25 73q4 12 16 8l12 -4q12 -3 27 -3q19 0 19 18q0 19 -22 19h-37q-10 0 -15 9q-4 4 -1 15l21 62q-84 19 -130 84.5t-46 164.5z" />
<glyph unicode="&#xe8;" horiz-adv-x="521" d="M35 245q0 119 65.5 188t182.5 69q93 0 147.5 -45.5t54.5 -123.5q0 -118 -171 -142l-117 -17q27 -50 91 -50q31 0 64 7l60 13q12 3 15 -9l28 -104q3 -13 -10 -16l-62 -15q-48 -11 -95 -11q-121 0 -187 68.5t-66 187.5zM108 712q-9 16 9 16h147q11 0 15 -10l60 -146 q3 -7 0 -11t-10 -4h-107q-10 0 -16 8zM187 276l104 16q46 4 46 39q0 36 -60 36q-35 0 -61.5 -23.5t-28.5 -67.5z" />
<glyph unicode="&#xe9;" horiz-adv-x="521" d="M35 245q0 119 65.5 188t182.5 69q93 0 147.5 -45.5t54.5 -123.5q0 -118 -171 -142l-117 -17q27 -50 91 -50q31 0 64 7l60 13q12 3 15 -9l28 -104q3 -13 -10 -16l-62 -15q-48 -11 -95 -11q-121 0 -187 68.5t-66 187.5zM187 276l104 16q46 4 46 39q0 36 -60 36 q-35 0 -61.5 -23.5t-28.5 -67.5zM194 572l60 146q4 10 15 10h147q18 0 9 -16l-98 -147q-6 -8 -16 -8h-107q-7 0 -10 4t0 11z" />
<glyph unicode="&#xea;" horiz-adv-x="521" d="M35 245q0 119 65.5 188t182.5 69q93 0 147.5 -45.5t54.5 -123.5q0 -118 -171 -142l-117 -17q27 -50 91 -50q31 0 64 7l60 13q12 3 15 -9l28 -104q3 -13 -10 -16l-62 -15q-48 -11 -95 -11q-121 0 -187 68.5t-66 187.5zM93 573l97 147q6 8 16 8h118q10 0 16 -8l98 -147 q9 -16 -9 -16h-95q-10 0 -16 7l-53 63l-52 -63q-6 -7 -16 -7h-95q-18 0 -9 16zM187 276l104 16q46 4 46 39q0 36 -60 36q-35 0 -61.5 -23.5t-28.5 -67.5z" />
<glyph unicode="&#xeb;" horiz-adv-x="521" d="M35 245q0 119 65.5 188t182.5 69q93 0 147.5 -45.5t54.5 -123.5q0 -118 -171 -142l-117 -17q27 -50 91 -50q31 0 64 7l60 13q12 3 15 -9l28 -104q3 -13 -10 -16l-62 -15q-48 -11 -95 -11q-121 0 -187 68.5t-66 187.5zM84 655q0 39 21 60.5t59 21.5t59 -21t21 -61 q0 -39 -21 -61t-59 -22t-59 22t-21 61zM187 276l104 16q46 4 46 39q0 36 -60 36q-35 0 -61.5 -23.5t-28.5 -67.5zM285 655q0 39 21 60.5t59 21.5t59 -21t21 -61q0 -39 -21 -61t-59 -22t-59 22t-21 61z" />
<glyph unicode="&#xec;" horiz-adv-x="309" d="M22 713q-8 15 10 15h139q11 0 14 -11l41 -145q3 -15 -11 -15h-100q-11 0 -15 9zM30 365v113q0 13 13 13h197q13 0 13 -13v-465q0 -13 -13 -13h-132q-13 0 -13 13v339h-52q-13 0 -13 13z" />
<glyph unicode="&#xed;" horiz-adv-x="309" d="M30 365v113q0 13 13 13h197q13 0 13 -13v-465q0 -13 -13 -13h-132q-13 0 -13 13v339h-52q-13 0 -13 13zM90 572l41 145q3 11 14 11h139q18 0 10 -15l-78 -147q-4 -9 -15 -9h-100q-14 0 -11 15z" />
<glyph unicode="&#xee;" horiz-adv-x="309" d="M1 572l76 147q6 9 16 9h128q11 0 15 -9l77 -147q8 -15 -9 -15h-92q-11 0 -16 8l-39 57l-40 -57q-5 -8 -16 -8h-91q-17 0 -9 15zM30 365v113q0 13 13 13h197q13 0 13 -13v-465q0 -13 -13 -13h-132q-13 0 -13 13v339h-52q-13 0 -13 13z" />
<glyph unicode="&#xef;" horiz-adv-x="309" d="M-28 661q0 39 21 60.5t59 21.5t59 -21t21 -61q0 -39 -21 -61t-59 -22t-59 22t-21 61zM30 365v113q0 13 13 13h197q13 0 13 -13v-465q0 -13 -13 -13h-132q-13 0 -13 13v339h-52q-13 0 -13 13zM176 661q0 39 21 60.5t59 21.5t59 -21t21 -61q0 -39 -21 -61t-59 -22t-59 22 t-21 61z" />
<glyph unicode="&#xf0;" horiz-adv-x="564" d="M35 231q0 110 59 174.5t155 64.5q60 0 99 -25q12 -8 17 -2.5t-2 14.5q-50 62 -85 97l-85 -38q-12 -5 -18 7l-14 30q-6 12 6 17l65 29l-116 113q-7 6 -5 11t11 5h178q8 0 16 -6l56 -53l6 -5l81 36q13 5 17 -7l15 -31q6 -12 -6 -17l-64 -29q63 -79 82.5 -160t19.5 -184 q0 -282 -249 -282q-111 0 -175 65t-64 176zM190 230q0 -47 24 -73.5t66 -26.5q41 0 64.5 26.5t23.5 73.5t-23.5 73.5t-64.5 26.5q-42 0 -66 -26.5t-24 -73.5z" />
<glyph unicode="&#xf1;" d="M55 13v465q0 13 13 13h71q11 0 15 -9l13 -21q7 -11 13 -11t18 10q49 42 116 42q89 0 139.5 -49t50.5 -136v-304q0 -13 -13 -13h-133q-13 0 -13 13v284q0 31 -15 47.5t-41 16.5q-75 0 -75 -102v-246q0 -13 -13 -13h-133q-13 0 -13 13zM111 615l26 54q31 63 94 63 q35 0 60 -18l24 -19q8 -7 16 -7q6 0 17 18l9 13q5 9 15 9h71q17 0 9 -15l-27 -55q-17 -33 -38.5 -47.5t-54.5 -14.5q-32 0 -63 20l-23 15q-11 8 -15 8q-8 0 -17 -16l-9 -14q-5 -9 -15 -9h-70q-17 0 -9 15z" />
<glyph unicode="&#xf2;" horiz-adv-x="558" d="M35 246q0 117 65.5 186.5t178.5 69.5q112 0 177.5 -69.5t65.5 -186.5q0 -119 -65.5 -188t-177.5 -69q-113 0 -178.5 69t-65.5 188zM121 712q-9 16 9 16h147q11 0 15 -10l60 -146q3 -7 0 -11t-10 -4h-107q-10 0 -16 8zM190 246q0 -55 24 -86t65 -31t64.5 31t23.5 86 q0 54 -23.5 84.5t-64.5 30.5t-65 -30.5t-24 -84.5z" />
<glyph unicode="&#xf3;" horiz-adv-x="558" d="M35 246q0 117 65.5 186.5t178.5 69.5q112 0 177.5 -69.5t65.5 -186.5q0 -119 -65.5 -188t-177.5 -69q-113 0 -178.5 69t-65.5 188zM190 246q0 -55 24 -86t65 -31t64.5 31t23.5 86q0 54 -23.5 84.5t-64.5 30.5t-65 -30.5t-24 -84.5zM207 572l60 146q4 10 15 10h147 q18 0 9 -16l-98 -147q-6 -8 -16 -8h-107q-7 0 -10 4t0 11z" />
<glyph unicode="&#xf4;" horiz-adv-x="558" d="M35 246q0 117 65.5 186.5t178.5 69.5q112 0 177.5 -69.5t65.5 -186.5q0 -119 -65.5 -188t-177.5 -69q-113 0 -178.5 69t-65.5 188zM106 573l97 147q6 8 16 8h118q10 0 16 -8l98 -147q9 -16 -9 -16h-95q-10 0 -16 7l-53 63l-52 -63q-6 -7 -16 -7h-95q-18 0 -9 16zM190 246 q0 -55 24 -86t65 -31t64.5 31t23.5 86q0 54 -23.5 84.5t-64.5 30.5t-65 -30.5t-24 -84.5z" />
<glyph unicode="&#xf5;" horiz-adv-x="558" d="M35 246q0 117 65.5 186.5t178.5 69.5q112 0 177.5 -69.5t65.5 -186.5q0 -119 -65.5 -188t-177.5 -69q-113 0 -178.5 69t-65.5 188zM113 615l26 54q31 63 94 63q35 0 60 -18l24 -19q8 -7 16 -7q6 0 17 18l9 13q5 9 15 9h71q17 0 9 -15l-27 -55q-17 -33 -38.5 -47.5 t-54.5 -14.5q-32 0 -63 20l-23 15q-11 8 -15 8q-8 0 -17 -16l-9 -14q-5 -9 -15 -9h-70q-17 0 -9 15zM190 246q0 -55 24 -86t65 -31t64.5 31t23.5 86q0 54 -23.5 84.5t-64.5 30.5t-65 -30.5t-24 -84.5z" />
<glyph unicode="&#xf6;" horiz-adv-x="558" d="M35 246q0 117 65.5 186.5t178.5 69.5q112 0 177.5 -69.5t65.5 -186.5q0 -119 -65.5 -188t-177.5 -69q-113 0 -178.5 69t-65.5 188zM97 655q0 39 21 60.5t59 21.5t59 -21t21 -61q0 -39 -21 -61t-59 -22t-59 22t-21 61zM190 246q0 -55 24 -86t65 -31t64.5 31t23.5 86 q0 54 -23.5 84.5t-64.5 30.5t-65 -30.5t-24 -84.5zM298 655q0 39 21 60.5t59 21.5t59 -21t21 -61q0 -39 -21 -61t-59 -22t-59 22t-21 61z" />
<glyph unicode="&#xf8;" horiz-adv-x="558" d="M35 246q0 117 65.5 186.5t178.5 69.5q79 0 135 -35l14 16q5 8 16 8h53q8 0 10 -4.5t-3 -11.5l-40 -50q58 -69 58 -179q0 -119 -65.5 -188t-177.5 -69q-80 0 -138 36l-15 -17q-5 -8 -16 -8h-54q-8 0 -10 4.5t3 11.5l42 52q-56 68 -56 178zM181 246q0 -32 9 -56l132 162 q-19 9 -43 9q-46 0 -72 -30.5t-26 -84.5zM233 139q22 -10 46 -10q45 0 71.5 31t26.5 86q0 32 -11 59z" />
<glyph unicode="&#xf9;" d="M50 174v304q0 13 13 13h133q13 0 13 -13v-284q0 -31 15 -47.5t41 -16.5q75 0 75 102v246q0 13 13 13h133q13 0 13 -13v-465q0 -13 -13 -13h-71q-11 0 -15 9l-13 21q-7 11 -13 11t-18 -10q-49 -42 -116 -42q-89 0 -139.5 49t-50.5 136zM117 712q-9 16 9 16h147 q11 0 15 -10l60 -146q3 -7 0 -11t-10 -4h-107q-10 0 -16 8z" />
<glyph unicode="&#xfa;" d="M50 174v304q0 13 13 13h133q13 0 13 -13v-284q0 -31 15 -47.5t41 -16.5q75 0 75 102v246q0 13 13 13h133q13 0 13 -13v-465q0 -13 -13 -13h-71q-11 0 -15 9l-13 21q-7 11 -13 11t-18 -10q-49 -42 -116 -42q-89 0 -139.5 49t-50.5 136zM204 572l60 146q4 10 15 10h147 q18 0 9 -16l-98 -147q-6 -8 -16 -8h-107q-7 0 -10 4t0 11z" />
<glyph unicode="&#xfb;" d="M50 174v304q0 13 13 13h133q13 0 13 -13v-284q0 -31 15 -47.5t41 -16.5q75 0 75 102v246q0 13 13 13h133q13 0 13 -13v-465q0 -13 -13 -13h-71q-11 0 -15 9l-13 21q-7 11 -13 11t-18 -10q-49 -42 -116 -42q-89 0 -139.5 49t-50.5 136zM102 573l97 147q6 8 16 8h118 q10 0 16 -8l98 -147q9 -16 -9 -16h-95q-10 0 -16 7l-53 63l-52 -63q-6 -7 -16 -7h-95q-18 0 -9 16z" />
<glyph unicode="&#xfc;" d="M50 174v304q0 13 13 13h133q13 0 13 -13v-284q0 -31 15 -47.5t41 -16.5q75 0 75 102v246q0 13 13 13h133q13 0 13 -13v-465q0 -13 -13 -13h-71q-11 0 -15 9l-13 21q-7 11 -13 11t-18 -10q-49 -42 -116 -42q-89 0 -139.5 49t-50.5 136zM93 655q0 39 21 60.5t59 21.5 t59 -21t21 -61q0 -39 -21 -61t-59 -22t-59 22t-21 61zM294 655q0 39 21 60.5t59 21.5t59 -21t21 -61q0 -39 -21 -61t-59 -22t-59 22t-21 61z" />
<glyph unicode="&#xfd;" horiz-adv-x="565" d="M26 476q-7 15 10 15h137q11 0 15 -10l40 -113q34 -98 46 -183q1 -5 5 -7t8 0t5 8q12 85 46 182l39 112q4 11 15 11h137q17 0 10 -15l-255 -685q-4 -10 -15 -10h-134q-17 0 -10 15l36 97q24 74 18 129t-42 154zM206 572l60 146q4 10 15 10h147q18 0 9 -16l-98 -147 q-6 -8 -16 -8h-107q-7 0 -10 4t0 11z" />
<glyph unicode="&#xfe;" horiz-adv-x="573" d="M55 -207v922q0 13 13 13h133q13 0 13 -13v-109q0 -73 -25 -126q-4 -9 1 -14.5t15 0.5q50 36 108 36q107 0 165.5 -68.5t58.5 -187.5t-62.5 -188t-169.5 -69q-39 0 -67 12l-24 10v-218q0 -13 -13 -13h-133q-13 0 -13 13zM212 151l20 -9q24 -13 61 -13q42 0 65.5 31 t23.5 86t-23.5 85t-66.5 30q-38 0 -59 -26t-21 -72v-112z" />
<glyph unicode="&#xff;" horiz-adv-x="565" d="M26 476q-7 15 10 15h137q11 0 15 -10l40 -113q34 -98 46 -183q1 -5 5 -7t8 0t5 8q12 85 46 182l39 112q4 11 15 11h137q17 0 10 -15l-255 -685q-4 -10 -15 -10h-134q-17 0 -10 15l36 97q24 74 18 129t-42 154zM96 655q0 39 21 60.5t59 21.5t59 -21t21 -61q0 -39 -21 -61 t-59 -22t-59 22t-21 61zM297 655q0 39 21 60.5t59 21.5t59 -21t21 -61q0 -39 -21 -61t-59 -22t-59 22t-21 61z" />
<glyph unicode="&#x152;" horiz-adv-x="1053" d="M45 354q0 169 84.5 267.5t228.5 98.5q99 0 158 -47q24 -21 24 10v13q0 13 13 13h455q14 0 11 -15l-33 -116q-3 -11 -14 -11h-299v-132h247q13 0 13 -13v-115q0 -13 -13 -13h-247v-153h329q13 0 13 -13v-115q0 -13 -13 -13h-449q-13 0 -13 13v14q0 28 -24 7 q-56 -45 -158 -45q-144 0 -228.5 98t-84.5 267zM208 354q0 -104 40 -162.5t110 -58.5q153 0 153 221t-153 221q-70 0 -110 -58t-40 -163z" />
<glyph unicode="&#x153;" horiz-adv-x="854" d="M35 245q0 119 64.5 188t179.5 69q100 0 154 -63q11 -11 21 0q64 63 165 63q93 0 144 -46t51 -129q0 -58 -43.5 -91t-135.5 -47l-106 -15q25 -51 90 -51q30 0 75 9l48 11q12 3 15 -9l29 -104q5 -13 -9 -16l-53 -13q-52 -12 -105 -12q-54 0 -92 14.5t-73 49.5q-10 9 -20 -1 q-54 -63 -155 -63q-112 0 -178 69t-66 187zM190 245q0 -54 24 -85t65 -31q42 0 65.5 31t23.5 85q0 55 -23 85.5t-66 30.5q-41 0 -65 -31t-24 -85zM518 276l107 15q41 7 41 38q0 39 -50 39q-43 0 -66 -22t-32 -70z" />
<glyph unicode="&#x178;" horiz-adv-x="696" d="M28 694q-8 15 10 15h147q11 0 15 -9l70 -128q38 -70 69 -156q3 -9 9.5 -9t9.5 9q24 71 69 156l69 128q4 9 15 9h147q18 0 10 -15l-125 -234q-51 -97 -69 -136t-31.5 -94t-13.5 -123v-94q0 -13 -13 -13h-135q-13 0 -13 13v94q0 97 -22 159t-93 194zM144 856q0 82 88 82 q87 0 87 -82t-87 -82q-88 0 -88 82zM372 856q0 82 88 82q87 0 87 -82t-87 -82q-88 0 -88 82z" />
<glyph unicode="&#x2c6;" horiz-adv-x="461" d="M58 573l97 147q6 8 16 8h118q10 0 16 -8l98 -147q9 -16 -9 -16h-95q-10 0 -16 7l-53 63l-52 -63q-6 -7 -16 -7h-95q-18 0 -9 16z" />
<glyph unicode="&#x2dc;" horiz-adv-x="452" d="M56 615l26 54q17 33 39 48t55 15q35 0 60 -18l24 -19q8 -7 16 -7q6 0 17 18l9 13q4 9 15 9h71q17 0 9 -15l-27 -55q-17 -33 -38.5 -47.5t-54.5 -14.5q-32 0 -63 20l-23 15q-11 8 -15 8q-8 0 -17 -16l-9 -14q-4 -9 -15 -9h-70q-17 0 -9 15z" />
<glyph unicode="&#x2000;" horiz-adv-x="473" />
<glyph unicode="&#x2001;" horiz-adv-x="946" />
<glyph unicode="&#x2002;" horiz-adv-x="473" />
<glyph unicode="&#x2003;" horiz-adv-x="946" />
<glyph unicode="&#x2004;" horiz-adv-x="315" />
<glyph unicode="&#x2005;" horiz-adv-x="236" />
<glyph unicode="&#x2006;" horiz-adv-x="157" />
<glyph unicode="&#x2007;" horiz-adv-x="157" />
<glyph unicode="&#x2008;" horiz-adv-x="118" />
<glyph unicode="&#x2009;" horiz-adv-x="189" />
<glyph unicode="&#x200a;" horiz-adv-x="52" />
<glyph unicode="&#x2010;" horiz-adv-x="434" d="M67 204v112q0 13 13 13h275q13 0 13 -13v-112q0 -13 -13 -13h-275q-13 0 -13 13z" />
<glyph unicode="&#x2011;" horiz-adv-x="434" d="M67 204v112q0 13 13 13h275q13 0 13 -13v-112q0 -13 -13 -13h-275q-13 0 -13 13z" />
<glyph unicode="&#x2012;" horiz-adv-x="434" d="M67 204v112q0 13 13 13h275q13 0 13 -13v-112q0 -13 -13 -13h-275q-13 0 -13 13z" />
<glyph unicode="&#x2013;" horiz-adv-x="698" d="M67 204v112q0 13 13 13h539q13 0 13 -13v-112q0 -13 -13 -13h-539q-13 0 -13 13z" />
<glyph unicode="&#x2014;" horiz-adv-x="845" d="M67 204v112q0 13 13 13h686q13 0 13 -13v-112q0 -13 -13 -13h-686q-13 0 -13 13z" />
<glyph unicode="&#x2018;" horiz-adv-x="266" d="M44 558q0 62 59 131l35 39h87l-53 -62q-14 -17 -13 -25.5t18 -16.5q46 -24 46 -78q0 -41 -23.5 -63.5t-65.5 -22.5q-43 0 -66.5 25.5t-23.5 72.5z" />
<glyph unicode="&#x2019;" horiz-adv-x="266" d="M41 465l53 62q14 17 13 25.5t-18 16.5q-46 24 -46 78q0 41 23.5 63.5t65.5 22.5q43 0 66.5 -25.5t23.5 -72.5q0 -62 -59 -131l-35 -39h-87z" />
<glyph unicode="&#x201a;" horiz-adv-x="266" d="M41 -93l53 62q14 17 13 25.5t-18 16.5q-46 24 -46 78q0 41 23.5 63.5t65.5 22.5q43 0 66.5 -25.5t23.5 -72.5q0 -62 -59 -131l-35 -39h-87z" />
<glyph unicode="&#x201c;" horiz-adv-x="495" d="M44 558q0 62 59 131l35 39h87l-53 -62q-14 -17 -13 -25.5t18 -16.5q46 -24 46 -78q0 -41 -23.5 -63.5t-65.5 -22.5q-43 0 -66.5 25.5t-23.5 72.5zM273 558q0 62 59 131l35 39h87l-53 -62q-14 -17 -13 -25.5t18 -16.5q46 -24 46 -78q0 -41 -23.5 -63.5t-65.5 -22.5 q-43 0 -66.5 25.5t-23.5 72.5z" />
<glyph unicode="&#x201d;" horiz-adv-x="495" d="M41 465l53 62q14 17 13 25.5t-18 16.5q-46 24 -46 78q0 41 23.5 63.5t65.5 22.5q43 0 66.5 -25.5t23.5 -72.5q0 -62 -59 -131l-35 -39h-87zM270 465l53 62q14 17 13 25.5t-18 16.5q-46 24 -46 78q0 41 23.5 63.5t65.5 22.5q43 0 66.5 -25.5t23.5 -72.5q0 -62 -59 -131 l-35 -39h-87z" />
<glyph unicode="&#x201e;" horiz-adv-x="495" d="M41 -93l53 62q14 17 13 25.5t-18 16.5q-46 24 -46 78q0 41 23.5 63.5t65.5 22.5q43 0 66.5 -25.5t23.5 -72.5q0 -62 -59 -131l-35 -39h-87zM270 -93l53 62q14 17 13 25.5t-18 16.5q-46 24 -46 78q0 41 23.5 63.5t65.5 22.5q43 0 66.5 -25.5t23.5 -72.5q0 -62 -59 -131 l-35 -39h-87z" />
<glyph unicode="&#x2022;" horiz-adv-x="443" d="M76 352q0 73 38.5 114.5t105.5 41.5q69 0 108 -41.5t39 -114.5q0 -71 -39 -111t-108 -40q-67 0 -105.5 40.5t-38.5 110.5z" />
<glyph unicode="&#x2026;" horiz-adv-x="736" d="M50 82q0 44 24 68.5t67 24.5q44 0 68 -24.5t24 -68.5t-24.5 -68.5t-67.5 -24.5t-67 24.5t-24 68.5zM282 82q0 44 24 68.5t67 24.5q44 0 68 -24.5t24 -68.5t-24.5 -68.5t-67.5 -24.5t-67 24.5t-24 68.5zM513 82q0 44 24 68.5t67 24.5q44 0 68 -24.5t24 -68.5t-24.5 -68.5 t-67.5 -24.5t-67 24.5t-24 68.5z" />
<glyph unicode="&#x202f;" horiz-adv-x="189" />
<glyph unicode="&#x2039;" horiz-adv-x="409" d="M57 246v1q0 10 5 16l116 175q6 8 16 8h139q8 0 10.5 -4.5t-2.5 -11.5l-126 -184l126 -184q5 -7 2.5 -11.5t-10.5 -4.5h-136q-11 0 -16 8l-119 176q-5 6 -5 16z" />
<glyph unicode="&#x203a;" horiz-adv-x="409" d="M68 62l126 184l-126 184q-5 7 -2.5 11.5t10.5 4.5h139q10 0 16 -8l116 -175q5 -6 5 -16v-1q0 -10 -5 -16l-119 -176q-6 -8 -16 -8h-136q-8 0 -10.5 4.5t2.5 11.5z" />
<glyph unicode="&#x205f;" horiz-adv-x="236" />
<glyph unicode="&#x20ac;" horiz-adv-x="705" d="M35 243v77q0 13 13 13h72v22q0 22 1 32h-73q-13 0 -13 13v77q0 13 13 13h89q31 109 110.5 169.5t196.5 60.5q83 0 149 -21l46 -15q12 -5 8 -16l-36 -113q-5 -12 -16 -8l-47 15q-42 13 -104 13q-92 0 -134 -85h192q17 0 10 -15l-31 -78q-4 -10 -15 -10h-182q-1 -10 -1 -32 l1 -22h161q17 0 10 -15l-30 -78q-4 -10 -15 -10h-106q40 -97 140 -97q58 0 103 15l47 14q11 4 16 -8l40 -109q4 -12 -8 -16l-48 -16q-72 -24 -150 -24q-120 0 -200 63.5t-109 177.5h-87q-13 0 -13 13z" />
<glyph unicode="&#x2122;" horiz-adv-x="955" d="M24 620v76q0 13 13 13h338q13 0 13 -13v-76q0 -13 -13 -13h-114v-283q0 -13 -13 -13h-85q-13 0 -13 13v283h-113q-13 0 -13 13zM448 324v372q0 13 13 13h132q11 0 15 -11q10 -29 11 -31l13 -34q2 -5 18.5 -47.5t20.5 -60.5q1 -3 2.5 -4t3 0t2.5 4q3 13 39 108l13 34 q1 5 4.5 16t4.5 15q4 11 15 11h134q13 0 13 -13v-372q0 -13 -13 -13h-85q-13 0 -13 13v68q0 105 11 165q1 6 -3.5 7.5t-6.5 -3.5q-3 -9 -10 -25.5t-9 -20.5l-27 -69q-16 -37 -17 -42q-4 -10 -15 -10h-79q-11 0 -14 11q-3 7 -16 41l-27 69q-12 26 -20 46q-3 5 -7.5 3.5 t-3.5 -7.5q13 -71 13 -165v-68q0 -13 -13 -13h-86q-13 0 -13 13z" />
<glyph unicode="&#xe000;" horiz-adv-x="490" d="M0 0v490h490v-490h-490z" />
</font>
</defs>
</svg>
